<?xml version="1.0" standalone="no"?>
  <!DOCTYPE svg PUBLIC "-//W3C//DTD SVG 1.1//EN" "http://www.w3.org/Graphics/SVG/1.1/DTD/svg11.dtd" >
  <svg>
  <metadata>
  Created by font-carrier
  </metadata>
  <defs>
  <font id="MuseoSansCyrl-100" horiz-adv-x="1130" vert-adv-y="1130" >
    <font-face
      
      font-family="Museo Sans Cyrl 100"
      
      font-weight="400"
      
      font-stretch="normal"
      
      units-per-em="1000"
      
      ascent="940"
      
      descent="-260"
      
    />
      <missing-glyph />

      

      
      <glyph glyph-name="uni21" unicode="&#x21;" d="M103 175L103 700L146 700L146 175L103 175M96 0L96 61L155 61L155 0L96 0Z"  horiz-adv-x="250" vert-adv-y="1000"  />

      
      <glyph glyph-name="uni22" unicode="&#x22;" d="M187 558L187 709L230 709L230 558L187 558M83 558L83 709L126 709L126 558L83 558Z"  horiz-adv-x="313" vert-adv-y="1000"  />

      
      <glyph glyph-name="uni23" unicode="&#x23;" d="M168 0L203 199L51 199L58 239L210 239L249 460L97 460L104 500L256 500L291 700L334 700L299 500L488 500L523 700L566 700L531 500L680 500L673 460L524 460L485 239L634 239L627 199L478 199L443 0L400 0L435 199L246 199L211 0L168 0M253 239L442 239L481 460L292 460L253 239Z"  horiz-adv-x="731" vert-adv-y="1000"  />

      
      <glyph glyph-name="uni24" unicode="&#x24;" d="M72 75L101 108Q134 73 185 51.50Q236 30 288 30Q355 30 399.50 68Q444 106 444 168Q444 207 424 237.50Q404 268 372.50 287.50Q341 307 302.50 324.50Q264 342 225 360Q186 378 154.50 399Q123 420 103 454Q83 488 83 531Q83 598 133.50 649.50Q184 701 265 710L265 805L308 805L308 711Q406 706 471 647L447 610Q418 637 377 653.50Q336 670 294 670Q220 670 174 628Q128 586 128 532Q128 483 165 448.50Q202 414 255 392Q308 370 361.50 345.50Q415 321 452 277Q489 233 489 170Q489 97 439.50 46.50Q390-4 308-11L308-104L265-104L265-11Q147-4 72 75Z"  horiz-adv-x="560" vert-adv-y="1000"  />

      
      <glyph glyph-name="uni25" unicode="&#x25;" d="M282.50 489Q282.50 489 263.25 470Q244 451 190 451Q136 451 98 489Q60 527 60 581Q60 635 98 673.50Q136 712 190 712Q244 712 282.50 673.50Q321 635 321 581Q321 527 282.50 489M58 0L589 700L641 700L110 0L58 0M128 517Q128 517 140.50 504Q153 491 190 491Q227 491 252.50 517Q278 543 278 581Q278 619 252.50 645.50Q227 672 190 672Q153 672 128 645.50Q103 619 103 581Q103 543 128 517M414 26Q414 26 395 45Q376 64 376 118Q376 172 414 210.50Q452 249 506 249Q560 249 598.50 210.50Q637 172 637 118Q637 64 598.50 26Q560-12 506-12Q452-12 414 26M444 182.50Q444 182.50 431.50 169.25Q419 156 419 118Q419 80 444 54Q469 28 506 28Q543 28 568.50 54Q594 80 594 118Q594 156 568.50 182.50Q543 209 506 209Q469 209 444 182.50Z"  horiz-adv-x="696" vert-adv-y="1000"  />

      
      <glyph glyph-name="uni26" unicode="&#x26;" d="M64 191Q64 256 99 309Q134 362 196 379L196 381Q95 421 95 538Q95 615 149.50 663.50Q204 712 299 712Q333 712 373 702L359 664Q325 672 296 672Q229 672 184.50 635.50Q140 599 140 539Q140 516 146 495Q152 474 168 450.50Q184 427 220.50 412.50Q257 398 311 398L474 398L474 500L517 500L517 398L614 398L614 358L517 358L517 246Q517 117 457.50 52.50Q398-12 294-12Q193-12 128.50 45.50Q64 103 64 191M109 193Q109 123 159 76.50Q209 30 294 30Q474 30 474 246L474 358L313 358Q212 358 160.50 313.50Q109 269 109 193Z"  horiz-adv-x="656" vert-adv-y="1000"  />

      
      <glyph glyph-name="uni27" unicode="&#x27;" d="M83 558L83 709L126 709L126 558L83 558Z"  horiz-adv-x="209" vert-adv-y="1000"  />

      
      <glyph glyph-name="uni28" unicode="&#x28;" d="M172-95Q62 97 62 335Q62 543 172 725L216 725Q103 535 103 334Q103 103 216-95L172-95Z"  horiz-adv-x="264" vert-adv-y="1000"  />

      
      <glyph glyph-name="uni29" unicode="&#x29;" d="M48-95Q161 103 161 334Q161 535 48 725L92 725Q202 543 202 335Q202 97 92-95L48-95Z"  horiz-adv-x="264" vert-adv-y="1000"  />

      
      <glyph glyph-name="uni2a" unicode="&#x2a;" d="M154 344L118 369L217 499L217 501L61 548L74 590L229 536L224 700L271 700L266 536L422 589L436 548L279 501L279 499L377 369L342 343L249 477L247 477L154 344Z"  horiz-adv-x="496" vert-adv-y="1000"  />

      
      <glyph glyph-name="uni2b" unicode="&#x2b;" d="M22 263L22 303L259 303L259 566L302 566L302 303L538 303L538 263L302 263L302 0L259 0L259 263L22 263Z"  horiz-adv-x="560" vert-adv-y="1000"  />

      
      <glyph glyph-name="uni2c" unicode="&#x2c;" d="M52-94L105 61L161 61L94-94L52-94Z"  horiz-adv-x="253" vert-adv-y="1000"  />

      
      <glyph glyph-name="uni2d" unicode="&#x2d;" d="M78 263L78 303L354 303L354 263L78 263Z"  horiz-adv-x="432" vert-adv-y="1000"  />

      
      <glyph glyph-name="uni2e" unicode="&#x2e;" d="M78 0L78 63L139 63L139 0L78 0Z"  horiz-adv-x="217" vert-adv-y="1000"  />

      
      <glyph glyph-name="uni2f" unicode="&#x2f;" d="M46-42L299 740L343 740L90-42L46-42Z"  horiz-adv-x="389" vert-adv-y="1000"  />

      
      <glyph glyph-name="uni30" unicode="&#x30;" d="M542 350Q542 350 542 169Q542-12 306-12Q70-12 70 350Q70 712 306 712Q542 712 542 350M213.50 54Q213.50 54 232.75 42Q252 30 306 30Q360 30 398.50 54Q437 78 458 123Q479 168 488 223Q497 278 497 350Q497 670 306 670Q115 670 115 350Q115 278 124 223Q133 168 154 123Q175 78 213.50 54Z"  horiz-adv-x="612" vert-adv-y="1000"  />

      
      <glyph glyph-name="uni31" unicode="&#x31;" d="M58 0L58 40L217 40L217 610L218 645L216 645Q209 632 179 602L96 519L66 548L217 700L260 700L260 40L415 40L415 0L58 0Z"  horiz-adv-x="452" vert-adv-y="1000"  />

      
      <glyph glyph-name="uni32" unicode="&#x32;" d="M64 0Q61 20 61 37Q61 86 81.50 128.50Q102 171 135 202Q168 233 208 261.50Q248 290 287.50 317.50Q327 345 360 373.50Q393 402 413.50 439.50Q434 477 434 520Q434 585 389.50 627.50Q345 670 271 670Q220 670 174.50 642.50Q129 615 101 570L69 592Q99 645 154 678.50Q209 712 272 712Q370 712 424.50 656Q479 600 479 520Q479 464 451.50 416Q424 368 382.50 336Q341 304 293 269.50Q245 235 203.50 205Q162 175 134.50 132Q107 89 107 40L490 40L490 0L64 0Z"  horiz-adv-x="555" vert-adv-y="1000"  />

      
      <glyph glyph-name="uni33" unicode="&#x33;" d="M54 85L86 117Q119 80 169.50 55Q220 30 274 30Q344 30 396.50 78.50Q449 127 449 202Q449 280 393.50 324.50Q338 369 262 369L214 369L202 399L398 628L429 660L429 662Q410 660 375 660L88 660L88 700L489 700L489 670L263 409Q299 409 335.50 399.50Q372 390 409.50 368Q447 346 470.50 303Q494 260 494 202Q494 113 428.50 50.50Q363-12 272-12Q212-12 154.50 14Q97 40 54 85Z"  horiz-adv-x="557" vert-adv-y="1000"  />

      
      <glyph glyph-name="uni34" unicode="&#x34;" d="M41 200L41 230L404 700L444 700L444 240L548 240L548 200L444 200L444 0L401 0L401 200L41 200M101 240L401 240L401 568L404 631L402 631Q385 606 367 583L101 242L101 240Z"  horiz-adv-x="593" vert-adv-y="1000"  />

      
      <glyph glyph-name="uni35" unicode="&#x35;" d="M58 89L93 116Q149 30 255 30Q337 30 393 82.50Q449 135 449 213Q449 292 393 345Q337 398 255 398Q177 398 119 356L87 367L127 700L452 700L452 660L165 660L140 451L133 408L135 408Q184 440 255 440Q355 440 424.50 374Q494 308 494 213Q494 119 424 53.50Q354-12 255-12Q195-12 142.50 14.50Q90 41 58 89Z"  horiz-adv-x="549" vert-adv-y="1000"  />

      
      <glyph glyph-name="uni36" unicode="&#x36;" d="M66 314Q66 382 83.50 449.50Q101 517 135 577Q169 637 229 674.50Q289 712 366 712Q432 712 489 684L468 645Q424 670 363 670Q287 670 229.50 620.50Q172 571 144 500Q116 429 111 348L113 348Q142 392 195.50 418Q249 444 311 444Q405 444 465.50 383Q526 322 526 218Q526 112 463.50 50Q401-12 311-12Q199-12 132.50 82Q66 176 66 314M316 30Q390 30 435.50 83.50Q481 137 481 220Q481 304 433.50 353Q386 402 309 402Q234 402 174.50 359Q115 316 115 253Q115 225 127.50 188.50Q140 152 163 116Q186 80 226.50 55Q267 30 316 30Z"  horiz-adv-x="583" vert-adv-y="1000"  />

      
      <glyph glyph-name="uni37" unicode="&#x37;" d="M113 0L405 595L442 660L442 662Q422 660 387 660L47 660L47 700L490 700L490 670L158 0L113 0Z"  horiz-adv-x="518" vert-adv-y="1000"  />

      
      <glyph glyph-name="uni38" unicode="&#x38;" d="M63 195Q63 237 78 274.50Q93 312 116 337Q139 362 155.50 375Q172 388 187 397Q97 452 97 539Q97 612 151.50 662Q206 712 303 712Q399 712 455 663Q511 614 511 536Q511 491 490 444.50Q469 398 451 375.50Q433 353 416 337Q520 279 520 187Q520 104 454.50 46Q389-12 295-12Q203-12 133 44.50Q63 101 63 195M376 356Q466 441 466 533Q466 596 421 633Q376 670 303 670Q229 670 185.50 633Q142 596 142 541Q142 511 154.50 487.50Q167 464 195.50 444.50Q224 425 246 413.50Q268 402 312.50 383.50Q357 365 376 356M108 198Q108 124 164 77Q220 30 293 30Q364 30 419.50 74.50Q475 119 475 184Q475 215 461 240Q447 265 418 284Q389 303 363.50 315.50Q338 328 294.50 346Q251 364 228 375Q214 368 197.50 355.50Q181 343 158.50 321Q136 299 122 266.50Q108 234 108 198Z"  horiz-adv-x="589" vert-adv-y="1000"  />

      
      <glyph glyph-name="uni39" unicode="&#x39;" d="M94 16L115 55Q159 30 218 30Q295 30 353 79.50Q411 129 439 199.50Q467 270 472 352L470 352Q441 308 387.50 282Q334 256 272 256Q178 256 117.50 317Q57 378 57 479Q57 588 119 650Q181 712 272 712Q385 712 451 618Q517 524 517 385Q517 317 499.50 250Q482 183 448 123Q414 63 353.50 25.50Q293-12 216-12Q150-12 94 16M274 298Q352 298 410 342.50Q468 387 468 437Q468 518 412 594Q356 670 273 670Q194 670 148 617Q102 564 102 479Q102 396 149.50 347Q197 298 274 298Z"  horiz-adv-x="583" vert-adv-y="1000"  />

      
      <glyph glyph-name="uni3a" unicode="&#x3a;" d="M78 441L78 500L135 500L135 441L78 441M78 0L78 59L135 59L135 0L78 0Z"  horiz-adv-x="213" vert-adv-y="1000"  />

      
      <glyph glyph-name="uni3b" unicode="&#x3b;" d="M123 441L123 500L180 500L180 441L123 441M78-94L123 61L175 61L119-94L78-94Z"  horiz-adv-x="275" vert-adv-y="1000"  />

      
      <glyph glyph-name="uni3c" unicode="&#x3c;" d="M48 265L48 301L487 498L487 450L110 284L110 282L487 116L487 68L48 265Z"  horiz-adv-x="560" vert-adv-y="1000"  />

      
      <glyph glyph-name="uni3d" unicode="&#x3d;" d="M52 343L52 383L508 383L508 343L52 343M52 183L52 223L508 223L508 183L52 183Z"  horiz-adv-x="560" vert-adv-y="1000"  />

      
      <glyph glyph-name="uni3e" unicode="&#x3e;" d="M73 68L73 116L450 282L450 284L73 450L73 498L512 301L512 265L73 68Z"  horiz-adv-x="560" vert-adv-y="1000"  />

      
      <glyph glyph-name="uni3f" unicode="&#x3f;" d="M162 175L162 219Q162 264 180.50 300.50Q199 337 225.50 362Q252 387 278 411.50Q304 436 322.50 468.50Q341 501 341 541Q341 596 300 633Q259 670 195 670Q125 670 68 628L45 662Q72 684 113 698Q154 712 194 712Q279 712 332.50 663Q386 614 386 540Q386 494 367.50 457.50Q349 421 322.50 396Q296 371 269 347Q242 323 223.50 290.50Q205 258 205 219L205 175L162 175M154 0L154 61L213 61L213 0L154 0Z"  horiz-adv-x="435" vert-adv-y="1000"  />

      
      <glyph glyph-name="uni40" unicode="&#x40;" d="M63 243Q63 394 165 501Q267 608 409 608Q529 608 585 557Q641 506 641 431L641 87L711 87L711 47L446 47Q366 47 309.50 104Q253 161 253 241Q253 322 309.50 379.50Q366 437 446 437L596 437Q593 494 550 531Q507 568 415 568Q286 568 197 473.50Q108 379 108 243Q108 107 196.50 13.50Q285-80 415-80L415-122Q269-122 166-15.50Q63 91 63 243M343 351Q343 351 320.50 328Q298 305 298 241Q298 177 342.50 132Q387 87 451 87L596 87L596 397L453 397Q388 397 343 351Z"  horiz-adv-x="761" vert-adv-y="1000"  />

      
      <glyph glyph-name="uni41" unicode="&#x41;" d="M27 0L289 700L335 700L597 0L551 0L460 242L163 242L73 0L27 0M178 282L445 282L339 566L313 650L311 650Q296 596 285 566L178 282Z"  horiz-adv-x="624" vert-adv-y="1000"  />

      
      <glyph glyph-name="uni42" unicode="&#x42;" d="M107 0L107 700L342 700Q420 700 469.50 652Q519 604 519 525Q519 416 428 372L428 370Q481 355 514 307Q547 259 547 193Q547 106 492 53Q437 0 352 0L107 0M150 388L341 388Q400 388 437 425.50Q474 463 474 525Q474 587 437.50 623.50Q401 660 340 660L150 660L150 388M150 40L348 40Q419 40 460.50 81Q502 122 502 193Q502 263 458.50 305.50Q415 348 347 348L150 348L150 40Z"  horiz-adv-x="608" vert-adv-y="1000"  />

      
      <glyph glyph-name="uni43" unicode="&#x43;" d="M60 355Q60 508 158 610Q256 712 407 712Q563 712 657 624L631 592Q589 629 529 650Q469 671 408 671Q275 671 190 581.50Q105 492 105 355Q105 216 190.50 122.50Q276 29 411 29Q551 29 648 124L675 94Q565-12 411-12Q256-12 158 94Q60 200 60 355Z"  horiz-adv-x="719" vert-adv-y="1000"  />

      
      <glyph glyph-name="uni44" unicode="&#x44;" d="M107 0L107 700L327 700Q485 700 580.50 607Q676 514 676 350Q676 185 581 92.50Q486 0 327 0L107 0M150 40L320 40Q462 40 546.50 121Q631 202 631 350Q631 497 546.50 578.50Q462 660 320 660L150 660L150 40Z"  horiz-adv-x="738" vert-adv-y="1000"  />

      
      <glyph glyph-name="uni45" unicode="&#x45;" d="M107 0L107 700L490 700L490 660L150 660L150 373L429 373L429 333L150 333L150 40L509 40L509 0L107 0Z"  horiz-adv-x="556" vert-adv-y="1000"  />

      
      <glyph glyph-name="uni46" unicode="&#x46;" d="M107 0L107 700L460 700L460 660L150 660L150 368L418 368L418 328L150 328L150 0L107 0Z"  horiz-adv-x="498" vert-adv-y="1000"  />

      
      <glyph glyph-name="uni47" unicode="&#x47;" d="M60 350Q60 502 160.50 607Q261 712 409 712Q555 712 653 633L627 600Q588 632 528 651.50Q468 671 409 671Q278 671 191.50 579Q105 487 105 350Q105 213 189.50 121Q274 29 403 29Q471 29 534.50 60Q598 91 643 144L643 279L518 279L518 319L686 319L686 0L643 0L643 61L644 91L642 91Q601 45 538 16.50Q475-12 403-12Q257-12 158.50 92.50Q60 197 60 350Z"  horiz-adv-x="754" vert-adv-y="1000"  />

      
      <glyph glyph-name="uni48" unicode="&#x48;" d="M107 0L107 700L150 700L150 371L594 371L594 700L637 700L637 0L594 0L594 331L150 331L150 0L107 0Z"  horiz-adv-x="744" vert-adv-y="1000"  />

      
      <glyph glyph-name="uni49" unicode="&#x49;" d="M107 0L107 700L150 700L150 0L107 0Z"  horiz-adv-x="257" vert-adv-y="1000"  />

      
      <glyph glyph-name="uni4a" unicode="&#x4a;" d="M35 191L35 213L78 213L78 190Q78 121 114.50 75Q151 29 221 29Q282 29 324 67.50Q366 106 366 190L366 660L199 660L199 700L409 700L409 191Q409 87 354.50 37.50Q300-12 222-12Q144-12 89.50 37.50Q35 87 35 191Z"  horiz-adv-x="509" vert-adv-y="1000"  />

      
      <glyph glyph-name="uni4b" unicode="&#x4b;" d="M107 0L107 700L150 700L150 388L280 388L480 700L532 700L317 370L317 368L546 0L494 0L280 348L150 348L150 0L107 0Z"  horiz-adv-x="570" vert-adv-y="1000"  />

      
      <glyph glyph-name="uni4c" unicode="&#x4c;" d="M107 0L107 700L150 700L150 40L484 40L484 0L107 0Z"  horiz-adv-x="508" vert-adv-y="1000"  />

      
      <glyph glyph-name="uni4d" unicode="&#x4d;" d="M80 0L136 700L178 700L382 260L416 181L418 181Q436 226 452 260L656 700L698 700L754 0L711 0L668 534L665 627L663 627Q643 568 627 534L439 135L395 135L208 534L171 629L169 629Q169 568 166 534L123 0L80 0Z"  horiz-adv-x="834" vert-adv-y="1000"  />

      
      <glyph glyph-name="uni4e" unicode="&#x4e;" d="M107 0L107 700L147 700L546 151L603 63L605 63Q600 116 600 151L600 700L643 700L643 0L603 0L204 549L147 637L145 637Q150 584 150 549L150 0L107 0Z"  horiz-adv-x="750" vert-adv-y="1000"  />

      
      <glyph glyph-name="uni4f" unicode="&#x4f;" d="M59 355Q59 506 161 609Q263 712 413 712Q563 712 665 609Q767 506 767 355Q767 200 665 94Q563-12 413-12Q263-12 161 94Q59 200 59 355M104 355Q104 217 192.50 123Q281 29 413 29Q545 29 633.50 123Q722 217 722 355Q722 490 633.50 580.50Q545 671 413 671Q281 671 192.50 580.50Q104 490 104 355Z"  horiz-adv-x="826" vert-adv-y="1000"  />

      
      <glyph glyph-name="uni50" unicode="&#x50;" d="M107 0L107 700L337 700Q430 700 490 644.50Q550 589 550 496Q550 402 490 346Q430 290 337 290L150 290L150 0L107 0M150 330L335 330Q413 330 459 374Q505 418 505 496Q505 574 459 617Q413 660 335 660L150 660L150 330Z"  horiz-adv-x="589" vert-adv-y="1000"  />

      
      <glyph glyph-name="uni51" unicode="&#x51;" d="M60 354Q60 506 161.50 609Q263 712 412 712Q565 712 666.50 609Q768 506 768 354Q768 205 676 105L766 12L738-15L649 77Q551-12 412-12Q262-12 161 94.50Q60 201 60 354M105 354Q105 217 193.50 123Q282 29 412 29Q534 29 620 107L530 200L558 227L647 135Q723 227 723 354Q723 490 634 580.50Q545 671 412 671Q282 671 193.50 580Q105 489 105 354Z"  horiz-adv-x="827" vert-adv-y="1000"  />

      
      <glyph glyph-name="uni52" unicode="&#x52;" d="M107 0L107 700L312 700Q396 700 438 679Q483 657 509 613Q535 569 535 511Q535 437 496 384.50Q457 332 395 318L395 316Q402 308 411 291L568 0L517 0L351 310L150 310L150 0L107 0M150 350L340 350Q408 350 449 394.50Q490 439 490 511Q490 557 468 593Q446 629 408 646Q377 660 310 660L150 660L150 350Z"  horiz-adv-x="607" vert-adv-y="1000"  />

      
      <glyph glyph-name="uni53" unicode="&#x53;" d="M52 75L81 108Q159 30 265 30Q335 30 379.50 68Q424 106 424 168Q424 222 387 259.50Q350 297 297.50 319.50Q245 342 192.50 365.50Q140 389 103 430.50Q66 472 66 532Q66 613 126.50 662.50Q187 712 277 712Q386 712 454 647L430 610Q402 638 359.50 654Q317 670 275 670Q207 670 159 633Q111 596 111 535Q111 484 148 448.50Q185 413 237.50 391.50Q290 370 342.50 346Q395 322 432 279Q469 236 469 173Q469 92 413.50 40Q358-12 264-12Q139-12 52 75Z"  horiz-adv-x="524" vert-adv-y="1000"  />

      
      <glyph glyph-name="uni54" unicode="&#x54;" d="M279 0L279 660L18 660L18 700L583 700L583 660L322 660L322 0L279 0Z"  horiz-adv-x="601" vert-adv-y="1000"  />

      
      <glyph glyph-name="uni55" unicode="&#x55;" d="M99 240L99 700L142 700L142 242Q142 144 201 86.50Q260 29 360 29Q460 29 519.50 86.50Q579 144 579 244L579 700L622 700L622 240Q622 125 549.50 56.50Q477-12 361-12Q244-12 171.50 57Q99 126 99 240Z"  horiz-adv-x="721" vert-adv-y="1000"  />

      
      <glyph glyph-name="uni56" unicode="&#x56;" d="M287 0L25 700L71 700L282 134L309 50L311 50Q326 101 338 134L550 700L596 700L334 0L287 0Z"  horiz-adv-x="621" vert-adv-y="1000"  />

      
      <glyph glyph-name="uni57" unicode="&#x57;" d="M225 0L41 700L86 700L234 130L251 55L253 55Q262 95 272 130L432 700L480 700L640 130L659 55L661 55Q669 96 678 130L831 700L876 700L687 0L633 0L485 528L458 639L454 639Q440 573 427 528L279 0L225 0Z"  horiz-adv-x="914" vert-adv-y="1000"  />

      
      <glyph glyph-name="uni58" unicode="&#x58;" d="M21 0L247 370L46 700L98 700L232 477L278 399L280 399Q302 443 323 477L458 700L510 700L307 370L534 0L483 0L321 266L276 341L274 341Q253 300 232 265L72 0L21 0Z"  horiz-adv-x="555" vert-adv-y="1000"  />

      
      <glyph glyph-name="uni59" unicode="&#x59;" d="M262 0L262 304L24 700L73 700L239 424L282 345L284 345Q306 390 327 424L493 700L542 700L305 304L305 0L262 0Z"  horiz-adv-x="567" vert-adv-y="1000"  />

      
      <glyph glyph-name="uni5a" unicode="&#x5a;" d="M35 0L35 34L420 596L468 660L468 662Q452 660 417 660L56 660L56 700L520 700L520 666L135 104L87 40L87 38Q103 40 138 40L523 40L523 0L35 0Z"  horiz-adv-x="565" vert-adv-y="1000"  />

      
      <glyph glyph-name="uni5b" unicode="&#x5b;" d="M98-95L98 725L206 725L206 685L141 685L141-55L206-55L206-95L98-95Z"  horiz-adv-x="265" vert-adv-y="1000"  />

      
      <glyph glyph-name="uni5c" unicode="&#x5c;" d="M299-42L46 740L90 740L343-42L299-42Z"  horiz-adv-x="389" vert-adv-y="1000"  />

      
      <glyph glyph-name="uni5d" unicode="&#x5d;" d="M59-55L124-55L124 685L59 685L59 725L167 725L167-95L59-95L59-55Z"  horiz-adv-x="265" vert-adv-y="1000"  />

      
      <glyph glyph-name="uni5e" unicode="&#x5e;" d="M77 252L274 700L306 700L503 252L457 252L290 640L123 252L77 252Z"  horiz-adv-x="600" vert-adv-y="1000"  />

      
      <glyph glyph-name="uni5f" unicode="&#x5f;" d="M43 0L539 0L539-40L43-40L43 0Z"  horiz-adv-x="582" vert-adv-y="1000"  />

      
      <glyph glyph-name="uni60" unicode="&#x60;" d="M272 750L193 861L249 861L316 750L272 750Z"  horiz-adv-x="509" vert-adv-y="1000"  />

      
      <glyph glyph-name="uni61" unicode="&#x61;" d="M41 133Q41 168 54 196Q67 224 86 241.50Q105 259 135.50 272Q166 285 191 291Q216 297 251 300.50Q286 304 305 304.50Q324 305 351 305L384 305L384 322Q384 471 247 471Q167 471 104 423L80 457Q109 482 155 497Q201 512 249 512Q336 512 381 464Q426 416 426 323L426 0L384 0L384 66L388 111L386 111Q366 59 319.50 23.50Q273-12 211-12Q143-12 92 25.50Q41 63 41 133M85 136Q85 93 119 60Q153 27 213 27Q290 27 337 92.50Q384 158 384 239L384 266L352 266Q321 266 301.50 265.50Q282 265 245.50 261.50Q209 258 185.50 249.50Q162 241 136.50 227.50Q111 214 98 190.50Q85 167 85 136Z"  horiz-adv-x="508" vert-adv-y="1000"  />

      
      <glyph glyph-name="uni62" unicode="&#x62;" d="M87 0L87 700L129 700L129 440L125 399L127 399Q150 451 198 481.50Q246 512 308 512Q407 512 465.50 440Q524 368 524 250Q524 132 461.50 60Q399-12 300-12Q244-12 197 19Q150 50 127 101L125 101Q129 83 129 57L129 0L87 0M128 249Q128 159 173.50 94Q219 29 302 29Q378 29 429 88.50Q480 148 480 250Q480 350 431.50 410.50Q383 471 306 471Q230 471 179 415.50Q128 360 128 249Z"  horiz-adv-x="578" vert-adv-y="1000"  />

      
      <glyph glyph-name="uni63" unicode="&#x63;" d="M126.50 60.50Q126.50 60.50 89.25 96.75Q52 133 52 249Q52 365 127.50 438.50Q203 512 310 512Q360 512 408.50 494Q457 476 489 441L463 407Q436 436 394.50 453.50Q353 471 310 471Q220 471 158 409.50Q96 348 96 249Q96 151 158 90Q220 29 310 29Q357 29 402 48Q447 67 477 101L499 66Q467 30 416.50 9Q366-12 310-12Q201-12 126.50 60.50Z"  horiz-adv-x="540" vert-adv-y="1000"  />

      
      <glyph glyph-name="uni64" unicode="&#x64;" d="M112.50 60Q112.50 60 83.25 96Q54 132 54 250Q54 368 116.50 440Q179 512 278 512Q335 512 381 481Q427 450 451 399L453 399Q449 417 449 440L449 700L491 700L491 0L449 0L449 63L453 101L451 101Q429 52 382.50 20Q336-12 270-12Q171-12 112.50 60M98 250Q98 150 146.50 89.50Q195 29 272 29Q348 29 399 84.50Q450 140 450 251Q450 341 404.50 406Q359 471 276 471Q200 471 149 411.50Q98 352 98 250Z"  horiz-adv-x="578" vert-adv-y="1000"  />

      
      <glyph glyph-name="uni65" unicode="&#x65;" d="M52 249Q52 371 123 441.50Q194 512 295 512Q392 512 445.50 446.50Q499 381 499 284Q499 275 497 257L96 257Q96 152 157.50 90.50Q219 29 310 29Q402 29 465 92L488 57Q455 26 406.50 7Q358-12 310-12Q201-12 126.50 60.50Q52 133 52 249M99 296L455 296Q451 383 406 428Q361 473 294 473Q221 473 166.50 426.50Q112 380 99 296Z"  horiz-adv-x="549" vert-adv-y="1000"  />

      
      <glyph glyph-name="uni66" unicode="&#x66;" d="M102 0L102 459L39 459L39 497L102 497L102 520Q102 578 119 618Q136 658 163.50 675Q191 692 213.50 698.50Q236 705 260 705Q270 705 286 703L286 664Q278 666 263 666Q244 666 227 661Q210 656 189.50 642.50Q169 629 156.50 597.50Q144 566 144 521L144 497L281 497L281 459L144 459L144 0L102 0Z"  horiz-adv-x="307" vert-adv-y="1000"  />

      
      <glyph glyph-name="uni67" unicode="&#x67;" d="M118-134Q183-169 252-169Q337-169 389.50-126.50Q442-84 442 3L442 61L446 102L444 102Q394 0 276 0Q178 0 116 71Q54 142 54 258Q54 375 112.50 443.50Q171 512 269 512Q327 512 374.50 487.50Q422 463 443 414L445 414Q442 421 442 433L442 500L484 500L484 3Q484-105 418.50-157.50Q353-210 255-210Q174-210 98-171L118-134M98 258Q98 158 148 99.50Q198 41 279 41Q352 41 397.50 92.50Q443 144 443 258Q443 471 269 471Q188 471 143 415Q98 359 98 258Z"  horiz-adv-x="571" vert-adv-y="1000"  />

      
      <glyph glyph-name="uni68" unicode="&#x68;" d="M87 0L87 700L129 700L129 412L125 371L127 371Q144 419 200 465.50Q256 512 339 512Q431 512 467.50 462.50Q504 413 504 317L504 0L462 0L462 302Q462 332 460 353.50Q458 375 451 398.50Q444 422 431 437Q418 452 394.50 461.50Q371 471 339 471Q252 471 190.50 407Q129 343 129 246L129 0L87 0Z"  horiz-adv-x="586" vert-adv-y="1000"  />

      
      <glyph glyph-name="uni69" unicode="&#x69;" d="M83 627L83 700L133 700L133 627L83 627M87 0L87 500L129 500L129 0L87 0Z"  horiz-adv-x="216" vert-adv-y="1000"  />

      
      <glyph glyph-name="uni6a" unicode="&#x6a;" d="M83 627L83 700L133 700L133 627L83 627M87-21L87 500L129 500L129-20Q129-78 112-118Q95-158 67.50-175.50Q40-193 17-199Q-6-205-30-205Q-37-205-55-203L-55-164Q-49-166-33-166Q-14-166 3.50-161Q21-156 41.50-142.50Q62-129 74.50-97.50Q87-66 87-21Z"  horiz-adv-x="216" vert-adv-y="1000"  />

      
      <glyph glyph-name="uni6b" unicode="&#x6b;" d="M87 0L87 700L129 700L129 303L218 303L380 500L435 500L254 285L254 283L452 0L399 0L218 264L129 264L129 0L87 0Z"  horiz-adv-x="473" vert-adv-y="1000"  />

      
      <glyph glyph-name="uni6c" unicode="&#x6c;" d="M87 101L87 700L129 700L129 114Q129 36 188 36Q197 36 203 37L203-2Q195-4 185-4Q171-4 157-0.50Q143 3 125.50 13Q108 23 97.50 45.50Q87 68 87 101Z"  horiz-adv-x="227" vert-adv-y="1000"  />

      
      <glyph glyph-name="uni6d" unicode="&#x6d;" d="M87 0L87 500L129 500L129 412L125 371L127 371Q146 427 203.50 469.50Q261 512 319 512Q393 512 431 478Q469 444 477 376L479 376Q501 431 554 471.50Q607 512 669 512Q761 512 798.50 462.50Q836 413 836 317L836 0L794 0L794 302Q794 384 768 428.50Q742 473 669 473Q591 473 537 404Q483 335 483 249L483 0L441 0L441 302Q441 332 439 353.50Q437 375 429.50 399Q422 423 409.50 438Q397 453 374 463Q351 473 319 473Q240 473 184.50 404Q129 335 129 249L129 0L87 0Z"  horiz-adv-x="918" vert-adv-y="1000"  />

      
      <glyph glyph-name="uni6e" unicode="&#x6e;" d="M87 0L87 500L129 500L129 412L125 371L127 371Q144 419 200 465.50Q256 512 339 512Q431 512 467.50 462.50Q504 413 504 317L504 0L462 0L462 302Q462 332 460 353.50Q458 375 451 398.50Q444 422 431 437Q418 452 394.50 461.50Q371 471 339 471Q252 471 190.50 407.50Q129 344 129 249L129 0L87 0Z"  horiz-adv-x="586" vert-adv-y="1000"  />

      
      <glyph glyph-name="uni6f" unicode="&#x6f;" d="M51 253Q51 362 126.50 437Q202 512 310 512Q418 512 493.50 437Q569 362 569 253Q569 142 493.50 65Q418-12 310-12Q202-12 126.50 65Q51 142 51 253M95 253Q95 158 157.50 93.50Q220 29 310 29Q400 29 462.50 93.50Q525 158 525 253Q525 345 462.50 408Q400 471 310 471Q220 471 157.50 408Q95 345 95 253Z"  horiz-adv-x="620" vert-adv-y="1000"  />

      
      <glyph glyph-name="uni70" unicode="&#x70;" d="M87-200L87 500L129 500L129 440L126 400L128 400Q150 452 198 482Q246 512 308 512Q407 512 465.50 440Q524 368 524 250Q524 132 462 60Q400-12 302-12Q245-12 198 18Q151 48 127 101L125 101Q129 83 129 57L129-200L87-200M128 249Q128 160 175 94.50Q222 29 302 29Q378 29 429 88.50Q480 148 480 250Q480 350 431.50 410.50Q383 471 306 471Q230 471 179 415.50Q128 360 128 249Z"  horiz-adv-x="578" vert-adv-y="1000"  />

      
      <glyph glyph-name="uni71" unicode="&#x71;" d="M112.50 60Q112.50 60 83.25 96Q54 132 54 250Q54 368 116.50 440Q179 512 278 512Q335 512 381 481.50Q427 451 450 400L452 400Q449 417 449 440L449 500L491 500L491-200L449-200L449 57L453 101L451 101Q430 55 385 21.50Q340-12 270-12Q171-12 112.50 60M98 250Q98 150 146.50 89.50Q195 29 272 29Q348 29 399 84.50Q450 140 450 251Q450 341 404.50 406Q359 471 276 471Q200 471 149 411.50Q98 352 98 250Z"  horiz-adv-x="578" vert-adv-y="1000"  />

      
      <glyph glyph-name="uni72" unicode="&#x72;" d="M87 0L87 500L129 500L129 405L125 364L127 364Q147 425 189 464.50Q231 504 287 504Q302 504 316 501L316 459Q310 461 293 461Q238 461 199 420Q160 379 144.50 325.50Q129 272 129 216L129 0L87 0Z"  horiz-adv-x="340" vert-adv-y="1000"  />

      
      <glyph glyph-name="uni73" unicode="&#x73;" d="M41 60L68 92Q128 29 223 29Q272 29 305 54Q338 79 338 123Q338 158 309.50 182Q281 206 240.50 221Q200 236 160 253Q120 270 91.50 301Q63 332 63 377Q63 441 109 476.50Q155 512 223 512Q318 512 371 458L346 424Q302 471 220 471Q173 471 140 448.50Q107 426 107 380Q107 344 135.50 320Q164 296 204.50 280.50Q245 265 285 248.50Q325 232 353.50 200.50Q382 169 382 123Q382 63 337 25.50Q292-12 222-12Q107-12 41 60Z"  horiz-adv-x="430" vert-adv-y="1000"  />

      
      <glyph glyph-name="uni74" unicode="&#x74;" d="M102 181L102 459L36 459L36 497L102 497L102 639L144 639L144 497L275 497L275 459L144 459L144 184Q144 138 156.50 106Q169 74 189 59.50Q209 45 226.50 40Q244 35 263 35Q278 35 286 37L286-2Q278-4 261-4Q242-4 224-1Q206 2 183 13.50Q160 25 143 44Q126 63 114 98.50Q102 134 102 181Z"  horiz-adv-x="304" vert-adv-y="1000"  />

      
      <glyph glyph-name="uni75" unicode="&#x75;" d="M81 183L81 500L123 500L123 198Q123 168 125 146.50Q127 125 134 101.50Q141 78 154 63Q167 48 190.50 38.50Q214 29 246 29Q336 29 393.50 96.50Q451 164 451 256L451 500L493 500L493 0L451 0L451 88L455 129L453 129Q436 81 381 34.50Q326-12 246-12Q157-12 119 36Q81 84 81 183Z"  horiz-adv-x="580" vert-adv-y="1000"  />

      
      <glyph glyph-name="uni76" unicode="&#x76;" d="M228 0L31 500L76 500L230 108L247 54L249 54Q257 84 266 108L420 500L464 500L268 0L228 0Z"  horiz-adv-x="496" vert-adv-y="1000"  />

      
      <glyph glyph-name="uni77" unicode="&#x77;" d="M210 0L34 500L79 500L215 108L232 54L234 54Q243 84 251 108L388 498L435 498L572 108L589 54L591 54Q599 83 608 108L744 500L789 500L613 0L568 0L429 388L412 442L410 442Q402 412 393 388L255 0L210 0Z"  horiz-adv-x="823" vert-adv-y="1000"  />

      
      <glyph glyph-name="uni78" unicode="&#x78;" d="M22 0L202 264L41 500L92 500L213 318L230 290L232 290Q241 305 249 318L370 500L421 500L260 264L440 0L388 0L250 207L232 236L230 236Q222 222 212 207L74 0L22 0Z"  horiz-adv-x="462" vert-adv-y="1000"  />

      
      <glyph glyph-name="uni79" unicode="&#x79;" d="M41-146Q69-170 103-170Q163-170 201-80L237 3L30 500L75 500L240 101L258 54L260 54Q267 77 277 101L442 500L487 500L230-117Q191-210 103-210Q82-210 61.50-203Q41-196 32-189L22-182L41-146Z"  horiz-adv-x="517" vert-adv-y="1000"  />

      
      <glyph glyph-name="uni7a" unicode="&#x7a;" d="M38 0L38 34L341 415L380 461L380 463Q362 461 329 461L51 461L51 500L437 500L437 466L133 85L93 39L93 37Q112 39 145 39L448 39L448 0L38 0Z"  horiz-adv-x="487" vert-adv-y="1000"  />

      
      <glyph glyph-name="uni7b" unicode="&#x7b;" d="M132 88L132 182Q132 228 110.50 260Q89 292 47 301L47 341Q88 350 110 381.50Q132 413 132 460L132 541Q132 600 148 640.50Q164 681 189 697Q214 713 232 718.50Q250 724 268 724L277 724L277 685L271 685Q258 685 245.50 681Q233 677 215 664Q197 651 186 619.50Q175 588 175 542L175 449Q175 407 154.50 373Q134 339 96 322L96 320Q175 288 175 193L175 87Q175 41 186 9.50Q197-22 215-35Q233-48 245.50-52Q258-56 271-56L277-56L277-95Q274-96 268-96Q255-96 241.50-93.50Q228-91 207-80Q186-69 170.50-51Q155-33 143.50 3.50Q132 40 132 88Z"  horiz-adv-x="326" vert-adv-y="1000"  />

      
      <glyph glyph-name="uni7c" unicode="&#x7c;" d="M96-155L96 785L139 785L139-155L96-155Z"  horiz-adv-x="235" vert-adv-y="1000"  />

      
      <glyph glyph-name="uni7d" unicode="&#x7d;" d="M49-56L55-56Q68-56 80.50-52Q93-48 111-35Q129-22 140 9.50Q151 41 151 87L151 193Q151 288 230 320L230 322Q196 336 173.50 370Q151 404 151 449L151 542Q151 588 140 619.50Q129 651 111 664Q93 677 80.50 681Q68 685 55 685L49 685L49 724L58 724Q76 724 94 718.50Q112 713 137 697Q162 681 178 640.50Q194 600 194 541L194 460Q194 414 216 382Q238 350 279 341L279 301Q238 293 216 260.50Q194 228 194 182L194 88Q194 40 182.50 3.50Q171-33 155.50-51Q140-69 119-80Q98-91 84.50-93.50Q71-96 58-96L49-95L49-56Z"  horiz-adv-x="326" vert-adv-y="1000"  />

      
      <glyph glyph-name="uni7e" unicode="&#x7e;" d="M79 213Q79 287 110.50 322Q142 357 194 357Q225 357 249.50 345.50Q274 334 289.50 318Q305 302 319.50 286Q334 270 354.50 258.50Q375 247 400 247Q431 247 449 268Q467 289 471 309.50Q475 330 475 353L515 353Q515 279 483.50 244Q452 209 400 209Q369 209 344.50 220.50Q320 232 304.50 248Q289 264 274.50 280Q260 296 239.50 307.50Q219 319 194 319Q163 319 145 298Q127 277 123 256.50Q119 236 119 213L79 213Z"  horiz-adv-x="593" vert-adv-y="1000"  />

      
      <glyph glyph-name="unia1" unicode="&#xa1;" d="M135 325L135-200L92-200L92 325L135 325M142 500L142 439L83 439L83 500L142 500Z"  horiz-adv-x="227" vert-adv-y="1000"  />

      
      <glyph glyph-name="unia2" unicode="&#xa2;" d="M269-13L269 71Q167 80 113.50 157.50Q60 235 60 350Q60 465 113.50 542.50Q167 620 269 629L269 712L312 712L312 629Q434 618 497 487L456 471Q401 587 293 587Q198 587 151.50 521Q105 455 105 350Q105 245 151.50 179Q198 113 293 113Q401 113 456 229L497 213Q433 81 312 71L312-13L269-13Z"  horiz-adv-x="560" vert-adv-y="1000"  />

      
      <glyph glyph-name="unia3" unicode="&#xa3;" d="M50 0L50 40L115 40L115 333L70 333L70 373L115 373L115 535Q115 610 171 661Q227 712 312 712Q395 712 459 661L430 628Q380 670 311 670Q239 670 198.50 630Q158 590 158 531L158 373L356 373L356 333L158 333L158 40L509 40L509 0L50 0Z"  horiz-adv-x="560" vert-adv-y="1000"  />

      
      <glyph glyph-name="unia4" unicode="&#xa4;" d="M133 0L133 190L59 190L59 230L133 230L133 310L59 310L59 350L133 350L133 700L330 700Q423 700 483 647.50Q543 595 543 506Q543 417 483 363.50Q423 310 330 310L176 310L176 230L431 230L431 190L176 190L176 0L133 0M176 350L328 350Q406 350 452 391.50Q498 433 498 506Q498 579 452 619.50Q406 660 328 660L176 660L176 350Z"  horiz-adv-x="585" vert-adv-y="1000"  />

      
      <glyph glyph-name="unia5" unicode="&#xa5;" d="M96 222L96 262L259 262L259 304L230 352L96 352L96 392L206 392L21 700L70 700L236 424L279 345L281 345Q303 390 324 424L490 700L539 700L354 392L462 392L462 352L330 352L302 304L302 262L462 262L462 222L302 222L302 0L259 0L259 222L96 222Z"  horiz-adv-x="560" vert-adv-y="1000"  />

      
      <glyph glyph-name="unia7" unicode="&#xa7;" d="M142 62L75 536Q73 552 73 561Q73 626 117.50 669Q162 712 231 712Q283 712 324 679L298 647Q267 671 230 671Q182 671 149.50 640Q117 609 117 558Q117 551 119 537L184 62L142 62M63-29L89 3Q119-21 157-21Q205-21 237 10Q269 41 269 92Q269 106 268 113L203 588L245 588L312 114Q314 96 314 89Q314 24 269-19Q224-62 156-62Q108-62 63-29Z"  horiz-adv-x="387" vert-adv-y="1000"  />

      
      <glyph glyph-name="unia8" unicode="&#xa8;" d="M300 788L300 861L346 861L346 788L300 788M163 788L163 861L209 861L209 788L163 788Z"  horiz-adv-x="509" vert-adv-y="1000"  />

      
      <glyph glyph-name="unia9" unicode="&#xa9;" d="M64 350Q64 501 167 606.50Q270 712 416 712Q565 712 668.50 606.50Q772 501 772 350Q772 198 668.50 93Q565-12 416-12Q269-12 166.50 93Q64 198 64 350M109 350Q109 214 197.50 122Q286 30 416 30Q548 30 637.50 122Q727 214 727 350Q727 485 637.50 577.50Q548 670 416 670Q286 670 197.50 577.50Q109 485 109 350M270 202Q270 202 241.50 233Q213 264 213 349Q213 434 270 497Q327 560 428 560Q475 560 519 536Q563 512 591 472L558 443Q537 475 502 496Q467 517 429 517Q348 517 303 467.50Q258 418 258 350Q258 282 303 232.50Q348 183 429 183Q467 183 501.50 203.50Q536 224 558 257L591 228Q566 190 520.50 165Q475 140 428 140Q327 140 270 202Z"  horiz-adv-x="835" vert-adv-y="1000"  />

      
      <glyph glyph-name="uniaa" unicode="&#xaa;" d="M197 382Q152 382 119 406Q86 430 86 475Q86 586 280 586L294 586L294 590Q294 673 218 673Q173 673 132 644L110 674Q155 710 219 710Q333 710 333 590L333 388L294 388L294 439L292 439Q280 416 254.50 399Q229 382 197 382M198 419Q241 419 267.50 456.50Q294 494 294 540L294 550L281 550Q127 550 127 479Q127 454 145.50 436.50Q164 419 198 419M83 263L83 300L336 300L336 263L83 263Z"  horiz-adv-x="423" vert-adv-y="1000"  />

      
      <glyph glyph-name="uniab" unicode="&#xab;" d="M215 282L379 488L432 488L268 282L432 77L379 77L215 282M219 77L55 282L219 488L272 488L108 282L272 77L219 77Z"  horiz-adv-x="494" vert-adv-y="1000"  />

      
      <glyph glyph-name="uniac" unicode="&#xac;" d="M90 343L90 383L546 383L546 164L504 164L504 343L90 343Z"  horiz-adv-x="629" vert-adv-y="1000"  />

      
      <glyph glyph-name="uniad" unicode="&#xad;" d="M78 263L78 303L354 303L354 263L78 263Z"  horiz-adv-x="432" vert-adv-y="1000"  />

      
      <glyph glyph-name="uniae" unicode="&#xae;" d="M64 350Q64 501 167 606.50Q270 712 416 712Q565 712 668.50 606.50Q772 501 772 350Q772 198 668.50 93Q565-12 416-12Q269-12 166.50 93Q64 198 64 350M109 350Q109 214 197.50 122Q286 30 416 30Q548 30 637.50 122Q727 214 727 350Q727 485 637.50 577.50Q548 670 416 670Q286 670 197.50 577.50Q109 485 109 350M300 150L300 550L433 550Q484 550 516.50 518Q549 486 549 434Q549 392 527 363.50Q505 335 472 327L472 325Q476 320 485 303L564 150L515 150L430 317L344 317L344 150L300 150M344 355L428 355Q463 355 483.50 376Q504 397 504 434Q504 470 483.50 490Q463 510 428 510L344 510L344 355Z"  horiz-adv-x="835" vert-adv-y="1000"  />

      
      <glyph glyph-name="uniaf" unicode="&#xaf;" d="M135 786L135 826L374 826L374 786L135 786Z"  horiz-adv-x="509" vert-adv-y="1000"  />

      
      <glyph glyph-name="unib0" unicode="&#xb0;" d="M286.50 487Q286.50 487 267.25 468Q248 449 194 449Q140 449 102 487Q64 525 64 579Q64 633 102 671.50Q140 710 194 710Q248 710 286.50 671.50Q325 633 325 579Q325 525 286.50 487M132 515Q132 515 144.50 502Q157 489 194 489Q231 489 256.50 515Q282 541 282 579Q282 617 256.50 643.50Q231 670 194 670Q157 670 132 643.50Q107 617 107 579Q107 541 132 515Z"  horiz-adv-x="388" vert-adv-y="1000"  />

      
      <glyph glyph-name="unib1" unicode="&#xb1;" d="M22 263L22 303L259 303L259 566L302 566L302 303L538 303L538 263L302 263L302 0L259 0L259 263L22 263M42-113L518-113L518-153L42-153L42-113Z"  horiz-adv-x="560" vert-adv-y="1000"  />

      
      <glyph glyph-name="unib2" unicode="&#xb2;" d="M54 423Q52 441 52 450Q52 488 68.50 519.50Q85 551 109.50 571Q134 591 162.50 611.50Q191 632 215.50 649Q240 666 256.50 690.50Q273 715 273 744Q273 780 247.50 805.50Q222 831 182 831Q129 831 88 781L64 807Q82 832 114.50 849.50Q147 867 182 867Q244 867 278 831.50Q312 796 312 744Q312 703 289.50 670.50Q267 638 235 616Q203 594 170.50 573.50Q138 553 115 524Q92 495 91 459L320 459L320 423L54 423Z"  horiz-adv-x="376" vert-adv-y="1000"  />

      
      <glyph glyph-name="unib3" unicode="&#xb3;" d="M179 413Q139 413 101.50 429.50Q64 446 41 478L69 504Q84 482 114 465.50Q144 449 180 449Q219 449 251 478.50Q283 508 283 550Q283 593 250.50 619.50Q218 646 176 646L144 646L133 670L241 797L266 822L266 824Q248 821 228 821L64 821L64 857L319 857L319 831L191 681Q242 677 282 646Q322 615 322 550Q322 493 279.50 453Q237 413 179 413Z"  horiz-adv-x="376" vert-adv-y="1000"  />

      
      <glyph glyph-name="unib4" unicode="&#xb4;" d="M193 750L260 861L316 861L237 750L193 750Z"  horiz-adv-x="509" vert-adv-y="1000"  />

      
      <glyph glyph-name="unib5" unicode="&#xb5;" d="M130 39Q136-12 136-33L136-200L94-200L94 500L136 500L136 198Q136 160 140 134.50Q144 109 155.50 82.50Q167 56 192.50 42.50Q218 29 258 29Q350 29 407 96.50Q464 164 464 256L464 500L506 500L506 0L464 0L464 83L466 124L464 124Q462 118 457.50 109Q453 100 436 76.50Q419 53 397.50 35Q376 17 338.50 2.50Q301-12 257-12Q167-12 132 39L130 39Z"  horiz-adv-x="578" vert-adv-y="1000"  />

      
      <glyph glyph-name="uni03BC" unicode="&#x03BC;" d="M130 39Q136-12 136-33L136-200L94-200L94 500L136 500L136 198Q136 160 140 134.50Q144 109 155.50 82.50Q167 56 192.50 42.50Q218 29 258 29Q350 29 407 96.50Q464 164 464 256L464 500L506 500L506 0L464 0L464 83L466 124L464 124Q462 118 457.50 109Q453 100 436 76.50Q419 53 397.50 35Q376 17 338.50 2.50Q301-12 257-12Q167-12 132 39L130 39Z"  horiz-adv-x="578" vert-adv-y="1000"  />

      
      <glyph glyph-name="unib6" unicode="&#xb6;" d="M282-50L282 241Q184 241 113 308Q42 375 42 471Q42 567 112.50 633.50Q183 700 281 700L491 700L491 660L324 660L324-50L282-50M386-50L386 597L428 597L428-50L386-50Z"  horiz-adv-x="543" vert-adv-y="1000"  />

      
      <glyph glyph-name="unib7" unicode="&#xb7;" d="M78 255L78 318L139 318L139 255L78 255Z"  horiz-adv-x="217" vert-adv-y="1000"  />

      
      <glyph glyph-name="unib8" unicode="&#xb8;" d="M209-93L233 18L265 13L265 5L253-60Q284-65 303-83Q322-101 322-128Q322-167 296-185.50Q270-204 231-204Q206-204 187-200L187-162Q204-167 228-167Q282-167 282-130Q282-92 221-92L209-93Z"  horiz-adv-x="509" vert-adv-y="1000"  />

      
      <glyph glyph-name="unib9" unicode="&#xb9;" d="M83 423L83 459L179 459L179 784L180 806L179 806Q175 798 156 779L112 736L86 763L179 857L217 857L217 459L310 459L310 423L83 423Z"  horiz-adv-x="376" vert-adv-y="1000"  />

      
      <glyph glyph-name="uniba" unicode="&#xba;" d="M358.50 431Q358.50 431 334.75 407Q311 383 243 383Q175 383 127.50 431Q80 479 80 549Q80 617 127.50 664Q175 711 243 711Q311 711 358.50 664Q406 617 406 549Q406 479 358.50 431M155 457Q155 457 173 438.50Q191 420 243 420Q295 420 331 457Q367 494 367 549Q367 603 331 638.50Q295 674 243 674Q191 674 155 638.50Q119 603 119 549Q119 494 155 457M98 263L98 300L392 300L392 263L98 263Z"  horiz-adv-x="488" vert-adv-y="1000"  />

      
      <glyph glyph-name="unibb" unicode="&#xbb;" d="M222 77L386 282L222 488L275 488L439 282L275 77L222 77M62 77L226 282L62 488L115 488L279 282L115 77L62 77Z"  horiz-adv-x="494" vert-adv-y="1000"  />

      
      <glyph glyph-name="unibc" unicode="&#xbc;" d="M761 0L761 121L546 121L546 147L768 434L799 434L799 157L867 157L867 121L799 121L799 0L761 0M601 157L761 157L761 304L764 369L762 369Q745 342 727 319L601 159L601 157M63 266L63 302L159 302L159 627L160 649L159 649Q155 641 136 622L92 579L66 606L159 700L197 700L197 302L290 302L290 266L63 266M295 0L251 0L587 700L630 700L295 0Z"  horiz-adv-x="911" vert-adv-y="1000"  />

      
      <glyph glyph-name="unibd" unicode="&#xbd;" d="M295 0L251 0L587 700L630 700L295 0M63 266L63 302L159 302L159 627L160 649L159 649Q155 641 136 622L92 579L66 606L159 700L197 700L197 302L290 302L290 266L63 266M576 0Q574 18 574 27Q574 65 590.50 96.50Q607 128 631.50 148Q656 168 684.50 188.50Q713 209 737.50 226Q762 243 778.50 267.50Q795 292 795 321Q795 357 769.50 382.50Q744 408 704 408Q651 408 610 358L586 384Q604 409 636.50 426.50Q669 444 704 444Q766 444 800 408.50Q834 373 834 321Q834 280 811.50 247.50Q789 215 757 193Q725 171 692.50 150.50Q660 130 637 101Q614 72 613 36L842 36L842 0L576 0Z"  horiz-adv-x="899" vert-adv-y="1000"  />

      
      <glyph glyph-name="unibe" unicode="&#xbe;" d="M189 256Q149 256 111.50 272.50Q74 289 51 321L79 347Q94 325 124 308.50Q154 292 190 292Q229 292 261 321.50Q293 351 293 393Q293 436 260.50 462.50Q228 489 186 489L154 489L143 513L251 640L276 665L276 667Q258 664 238 664L74 664L74 700L329 700L329 674L201 524Q252 520 292 489Q332 458 332 393Q332 336 289.50 296Q247 256 189 256M318 0L274 0L610 700L653 700L318 0M784 0L784 121L569 121L569 147L791 434L822 434L822 157L890 157L890 121L822 121L822 0L784 0M624 157L784 157L784 304L787 369L785 369Q768 342 750 319L624 159L624 157Z"  horiz-adv-x="934" vert-adv-y="1000"  />

      
      <glyph glyph-name="unibf" unicode="&#xbf;" d="M267 325L267 281Q267 236 248.50 199.50Q230 163 204 138Q178 113 151.50 88.50Q125 64 106.50 31.50Q88-1 88-41Q88-96 129-133Q170-170 234-170Q304-170 361-128L384-162Q357-184 316-198Q275-212 235-212Q150-212 96.50-163Q43-114 43-40Q43-1 56.50 31.50Q70 64 90 85Q110 106 133.50 129Q157 152 177 171Q197 190 210.50 219Q224 248 224 281L224 325L267 325M275 500L275 439L216 439L216 500L275 500Z"  horiz-adv-x="425" vert-adv-y="1000"  />

      
      <glyph glyph-name="unic0" unicode="&#xc0;" d="M27 0L289 700L335 700L597 0L551 0L460 242L163 242L73 0L27 0M178 282L445 282L339 566L313 650L311 650Q296 596 285 566L178 282M290 750L211 861L267 861L334 750L290 750Z"  horiz-adv-x="624" vert-adv-y="1000"  />

      
      <glyph glyph-name="unic1" unicode="&#xc1;" d="M27 0L289 700L335 700L597 0L551 0L460 242L163 242L73 0L27 0M178 282L445 282L339 566L313 650L311 650Q296 596 285 566L178 282M289 750L356 861L412 861L333 750L289 750Z"  horiz-adv-x="624" vert-adv-y="1000"  />

      
      <glyph glyph-name="unic2" unicode="&#xc2;" d="M27 0L289 700L335 700L597 0L551 0L460 242L163 242L73 0L27 0M178 282L445 282L339 566L313 650L311 650Q296 596 285 566L178 282M206 750L286 861L338 861L418 750L369 750L313 830L311 830L255 750L206 750Z"  horiz-adv-x="624" vert-adv-y="1000"  />

      
      <glyph glyph-name="unic3" unicode="&#xc3;" d="M27 0L289 700L335 700L597 0L551 0L460 242L163 242L73 0L27 0M178 282L445 282L339 566L313 650L311 650Q296 596 285 566L178 282M168 753Q168 861 251 861Q274 861 292.50 849.50Q311 838 321.50 824Q332 810 347 798.50Q362 787 377 787Q417 787 417 858L457 858Q457 750 374 750Q351 750 332.50 761.50Q314 773 303.50 787Q293 801 278 812.50Q263 824 248 824Q208 824 208 753L168 753Z"  horiz-adv-x="624" vert-adv-y="1000"  />

      
      <glyph glyph-name="unic4" unicode="&#xc4;" d="M27 0L289 700L335 700L597 0L551 0L460 242L163 242L73 0L27 0M178 282L445 282L339 566L313 650L311 650Q296 596 285 566L178 282M358 788L358 861L404 861L404 788L358 788M221 788L221 861L267 861L267 788L221 788Z"  horiz-adv-x="624" vert-adv-y="1000"  />

      
      <glyph glyph-name="unic5" unicode="&#xc5;" d="M27 0L289 700L335 700L597 0L551 0L460 242L163 242L73 0L27 0M178 282L445 282L339 566L313 650L311 650Q296 596 285 566L178 282M359.50 759Q359.50 759 349.75 749.50Q340 740 312 740Q284 740 264.50 759Q245 778 245 807Q245 836 264.50 855Q284 874 312 874Q340 874 359.50 855Q379 836 379 807Q379 778 359.50 759M289 784Q289 784 293.50 779.50Q298 775 312 775Q326 775 335 784Q344 793 344 807Q344 822 335 831Q326 840 312 840Q298 840 289 831Q280 822 280 807Q280 793 289 784Z"  horiz-adv-x="624" vert-adv-y="1000"  />

      
      <glyph glyph-name="unic6" unicode="&#xc6;" d="M23 0L310 700L759 700L759 660L419 660L419 373L698 373L698 333L419 333L419 40L778 40L778 0L376 0L376 333L205 333L69 0L23 0M222 373L376 373L376 660L340 660L222 373Z"  horiz-adv-x="825" vert-adv-y="1000"  />

      
      <glyph glyph-name="unic7" unicode="&#xc7;" d="M366-93L383-11Q240-1 150.50 103Q61 207 61 355Q61 508 159 610Q257 712 408 712Q564 712 658 624L632 592Q590 629 530 650Q470 671 409 671Q276 671 191 581.50Q106 492 106 355Q106 216 191.50 122.50Q277 29 412 29Q552 29 649 124L676 94Q569-9 419-12L410-60Q441-65 460-83Q479-101 479-128Q479-167 453-185.50Q427-204 388-204Q363-204 344-200L344-162Q361-167 385-167Q439-167 439-130Q439-92 378-92L366-93Z"  horiz-adv-x="720" vert-adv-y="1000"  />

      
      <glyph glyph-name="unic8" unicode="&#xc8;" d="M107 0L107 700L490 700L490 660L150 660L150 373L429 373L429 333L150 333L150 40L509 40L509 0L107 0M289 750L210 861L266 861L333 750L289 750Z"  horiz-adv-x="556" vert-adv-y="1000"  />

      
      <glyph glyph-name="unic9" unicode="&#xc9;" d="M107 0L107 700L490 700L490 660L150 660L150 373L429 373L429 333L150 333L150 40L509 40L509 0L107 0M288 750L355 861L411 861L332 750L288 750Z"  horiz-adv-x="556" vert-adv-y="1000"  />

      
      <glyph glyph-name="unica" unicode="&#xca;" d="M107 0L107 700L490 700L490 660L150 660L150 373L429 373L429 333L150 333L150 40L509 40L509 0L107 0M205 750L285 861L337 861L417 750L368 750L312 830L310 830L254 750L205 750Z"  horiz-adv-x="556" vert-adv-y="1000"  />

      
      <glyph glyph-name="unicb" unicode="&#xcb;" d="M107 0L107 700L490 700L490 660L150 660L150 373L429 373L429 333L150 333L150 40L509 40L509 0L107 0M357 788L357 861L403 861L403 788L357 788M220 788L220 861L266 861L266 788L220 788Z"  horiz-adv-x="556" vert-adv-y="1000"  />

      
      <glyph glyph-name="unicc" unicode="&#xcc;" d="M107 0L107 700L150 700L150 0L107 0M107 750L28 861L84 861L151 750L107 750Z"  horiz-adv-x="257" vert-adv-y="1000"  />

      
      <glyph glyph-name="unicd" unicode="&#xcd;" d="M107 0L107 700L150 700L150 0L107 0M106 750L173 861L229 861L150 750L106 750Z"  horiz-adv-x="257" vert-adv-y="1000"  />

      
      <glyph glyph-name="unice" unicode="&#xce;" d="M107 0L107 700L150 700L150 0L107 0M23 750L103 861L155 861L235 750L186 750L130 830L128 830L72 750L23 750Z"  horiz-adv-x="257" vert-adv-y="1000"  />

      
      <glyph glyph-name="unicf" unicode="&#xcf;" d="M107 0L107 700L150 700L150 0L107 0M175 788L175 861L221 861L221 788L175 788M38 788L38 861L84 861L84 788L38 788Z"  horiz-adv-x="257" vert-adv-y="1000"  />

      
      <glyph glyph-name="unid0" unicode="&#xd0;" d="M113 0L113 333L53 333L53 373L113 373L113 700L333 700Q491 700 586.50 607Q682 514 682 350Q682 185 587 92.50Q492 0 333 0L113 0M156 40L326 40Q468 40 552.50 121Q637 202 637 350Q637 497 552.50 578.50Q468 660 326 660L156 660L156 373L339 373L339 333L156 333L156 40Z"  horiz-adv-x="744" vert-adv-y="1000"  />

      
      <glyph glyph-name="unid1" unicode="&#xd1;" d="M107 0L107 700L147 700L546 151L603 63L605 63Q600 116 600 151L600 700L643 700L643 0L603 0L204 549L147 637L145 637Q150 584 150 549L150 0L107 0M231 753Q231 861 314 861Q337 861 355.50 849.50Q374 838 384.50 824Q395 810 410 798.50Q425 787 440 787Q480 787 480 858L520 858Q520 750 437 750Q414 750 395.50 761.50Q377 773 366.50 787Q356 801 341 812.50Q326 824 311 824Q271 824 271 753L231 753Z"  horiz-adv-x="750" vert-adv-y="1000"  />

      
      <glyph glyph-name="unid2" unicode="&#xd2;" d="M59 355Q59 506 161 609Q263 712 413 712Q563 712 665 609Q767 506 767 355Q767 200 665 94Q563-12 413-12Q263-12 161 94Q59 200 59 355M104 355Q104 217 192.50 123Q281 29 413 29Q545 29 633.50 123Q722 217 722 355Q722 490 633.50 580.50Q545 671 413 671Q281 671 192.50 580.50Q104 490 104 355M391 750L312 861L368 861L435 750L391 750Z"  horiz-adv-x="826" vert-adv-y="1000"  />

      
      <glyph glyph-name="unid3" unicode="&#xd3;" d="M59 355Q59 506 161 609Q263 712 413 712Q563 712 665 609Q767 506 767 355Q767 200 665 94Q563-12 413-12Q263-12 161 94Q59 200 59 355M104 355Q104 217 192.50 123Q281 29 413 29Q545 29 633.50 123Q722 217 722 355Q722 490 633.50 580.50Q545 671 413 671Q281 671 192.50 580.50Q104 490 104 355M390 750L457 861L513 861L434 750L390 750Z"  horiz-adv-x="826" vert-adv-y="1000"  />

      
      <glyph glyph-name="unid4" unicode="&#xd4;" d="M59 355Q59 506 161 609Q263 712 413 712Q563 712 665 609Q767 506 767 355Q767 200 665 94Q563-12 413-12Q263-12 161 94Q59 200 59 355M104 355Q104 217 192.50 123Q281 29 413 29Q545 29 633.50 123Q722 217 722 355Q722 490 633.50 580.50Q545 671 413 671Q281 671 192.50 580.50Q104 490 104 355M307 750L387 861L439 861L519 750L470 750L414 830L412 830L356 750L307 750Z"  horiz-adv-x="826" vert-adv-y="1000"  />

      
      <glyph glyph-name="unid5" unicode="&#xd5;" d="M59 355Q59 506 161 609Q263 712 413 712Q563 712 665 609Q767 506 767 355Q767 200 665 94Q563-12 413-12Q263-12 161 94Q59 200 59 355M104 355Q104 217 192.50 123Q281 29 413 29Q545 29 633.50 123Q722 217 722 355Q722 490 633.50 580.50Q545 671 413 671Q281 671 192.50 580.50Q104 490 104 355M269 753Q269 861 352 861Q375 861 393.50 849.50Q412 838 422.50 824Q433 810 448 798.50Q463 787 478 787Q518 787 518 858L558 858Q558 750 475 750Q452 750 433.50 761.50Q415 773 404.50 787Q394 801 379 812.50Q364 824 349 824Q309 824 309 753L269 753Z"  horiz-adv-x="826" vert-adv-y="1000"  />

      
      <glyph glyph-name="unid6" unicode="&#xd6;" d="M59 355Q59 506 161 609Q263 712 413 712Q563 712 665 609Q767 506 767 355Q767 200 665 94Q563-12 413-12Q263-12 161 94Q59 200 59 355M104 355Q104 217 192.50 123Q281 29 413 29Q545 29 633.50 123Q722 217 722 355Q722 490 633.50 580.50Q545 671 413 671Q281 671 192.50 580.50Q104 490 104 355M459 788L459 861L505 861L505 788L459 788M322 788L322 861L368 861L368 788L322 788Z"  horiz-adv-x="826" vert-adv-y="1000"  />

      
      <glyph glyph-name="unid7" unicode="&#xd7;" d="M28 28L252 283L28 538L58 566L280 314L502 566L532 538L307 283L532 28L502 0L280 252L58 0L28 28Z"  horiz-adv-x="560" vert-adv-y="1000"  />

      
      <glyph glyph-name="unid8" unicode="&#xd8;" d="M137 1L187 71Q127 122 93 196Q59 270 59 354Q59 505 162.50 608.50Q266 712 413 712Q516 712 605 655L654 724L688 699L639 630Q767 523 767 354Q767 201 663.50 94.50Q560-12 413-12Q309-12 221 46L172-23L137 1M212 106L580 621Q505 671 413 671Q284 671 194 579.50Q104 488 104 354Q104 280 133 215Q162 150 212 106M245 80Q319 29 412 29Q541 29 631.50 123Q722 217 722 353Q722 503 614 596L245 80Z"  horiz-adv-x="825" vert-adv-y="1000"  />

      
      <glyph glyph-name="unid9" unicode="&#xd9;" d="M99 240L99 700L142 700L142 242Q142 144 201 86.50Q260 29 360 29Q460 29 519.50 86.50Q579 144 579 244L579 700L622 700L622 240Q622 125 549.50 56.50Q477-12 361-12Q244-12 171.50 57Q99 126 99 240M338 750L259 861L315 861L382 750L338 750Z"  horiz-adv-x="721" vert-adv-y="1000"  />

      
      <glyph glyph-name="unida" unicode="&#xda;" d="M99 240L99 700L142 700L142 242Q142 144 201 86.50Q260 29 360 29Q460 29 519.50 86.50Q579 144 579 244L579 700L622 700L622 240Q622 125 549.50 56.50Q477-12 361-12Q244-12 171.50 57Q99 126 99 240M337 750L404 861L460 861L381 750L337 750Z"  horiz-adv-x="721" vert-adv-y="1000"  />

      
      <glyph glyph-name="unidb" unicode="&#xdb;" d="M99 240L99 700L142 700L142 242Q142 144 201 86.50Q260 29 360 29Q460 29 519.50 86.50Q579 144 579 244L579 700L622 700L622 240Q622 125 549.50 56.50Q477-12 361-12Q244-12 171.50 57Q99 126 99 240M254 750L334 861L386 861L466 750L417 750L361 830L359 830L303 750L254 750Z"  horiz-adv-x="721" vert-adv-y="1000"  />

      
      <glyph glyph-name="unidc" unicode="&#xdc;" d="M99 240L99 700L142 700L142 242Q142 144 201 86.50Q260 29 360 29Q460 29 519.50 86.50Q579 144 579 244L579 700L622 700L622 240Q622 125 549.50 56.50Q477-12 361-12Q244-12 171.50 57Q99 126 99 240M406 788L406 861L452 861L452 788L406 788M269 788L269 861L315 861L315 788L269 788Z"  horiz-adv-x="721" vert-adv-y="1000"  />

      
      <glyph glyph-name="unidd" unicode="&#xdd;" d="M262 0L262 304L24 700L73 700L239 424L282 345L284 345Q306 390 327 424L493 700L542 700L305 304L305 0L262 0M260 750L327 861L383 861L304 750L260 750Z"  horiz-adv-x="567" vert-adv-y="1000"  />

      
      <glyph glyph-name="unide" unicode="&#xde;" d="M107 0L107 700L150 700L150 570L337 570Q430 570 490 514.50Q550 459 550 366Q550 272 490 216Q430 160 335 160L150 160L150 0L107 0M150 200L335 200Q413 200 459 244Q505 288 505 366Q505 444 459 487Q413 530 335 530L150 530L150 200Z"  horiz-adv-x="593" vert-adv-y="1000"  />

      
      <glyph glyph-name="unidf" unicode="&#xdf;" d="M87 0L87 532Q87 615 143.50 663.50Q200 712 275 712Q349 712 392.50 670.50Q436 629 436 574Q436 537 417 505Q398 473 375.50 454.50Q353 436 334 412.50Q315 389 315 368Q315 344 348 317.50Q381 291 420.50 268.50Q460 246 493 208.50Q526 171 526 128Q526 63 481 28Q436-7 372-7Q280-7 218 28L218 74Q283 34 373 34Q419 34 450.50 58Q482 82 482 128Q482 157 460.50 183Q439 209 407.50 228.50Q376 248 345 267.50Q314 287 292.50 312Q271 337 271 366Q271 396 290 424Q309 452 331.50 470.50Q354 489 373 517Q392 545 392 574Q392 612 360.50 641.50Q329 671 273 671Q216 671 172.50 632.50Q129 594 129 529L129 0L87 0Z"  horiz-adv-x="562" vert-adv-y="1000"  />

      
      <glyph glyph-name="unie0" unicode="&#xe0;" d="M41 133Q41 168 54 196Q67 224 86 241.50Q105 259 135.50 272Q166 285 191 291Q216 297 251 300.50Q286 304 305 304.50Q324 305 351 305L384 305L384 322Q384 471 247 471Q167 471 104 423L80 457Q109 482 155 497Q201 512 249 512Q336 512 381 464Q426 416 426 323L426 0L384 0L384 66L388 111L386 111Q366 59 319.50 23.50Q273-12 211-12Q143-12 92 25.50Q41 63 41 133M85 136Q85 93 119 60Q153 27 213 27Q290 27 337 92.50Q384 158 384 239L384 266L352 266Q321 266 301.50 265.50Q282 265 245.50 261.50Q209 258 185.50 249.50Q162 241 136.50 227.50Q111 214 98 190.50Q85 167 85 136M227 589L148 700L204 700L271 589L227 589Z"  horiz-adv-x="508" vert-adv-y="1000"  />

      
      <glyph glyph-name="unie1" unicode="&#xe1;" d="M41 133Q41 168 54 196Q67 224 86 241.50Q105 259 135.50 272Q166 285 191 291Q216 297 251 300.50Q286 304 305 304.50Q324 305 351 305L384 305L384 322Q384 471 247 471Q167 471 104 423L80 457Q109 482 155 497Q201 512 249 512Q336 512 381 464Q426 416 426 323L426 0L384 0L384 66L388 111L386 111Q366 59 319.50 23.50Q273-12 211-12Q143-12 92 25.50Q41 63 41 133M85 136Q85 93 119 60Q153 27 213 27Q290 27 337 92.50Q384 158 384 239L384 266L352 266Q321 266 301.50 265.50Q282 265 245.50 261.50Q209 258 185.50 249.50Q162 241 136.50 227.50Q111 214 98 190.50Q85 167 85 136M225 589L292 700L348 700L269 589L225 589Z"  horiz-adv-x="508" vert-adv-y="1000"  />

      
      <glyph glyph-name="unie2" unicode="&#xe2;" d="M41 133Q41 168 54 196Q67 224 86 241.50Q105 259 135.50 272Q166 285 191 291Q216 297 251 300.50Q286 304 305 304.50Q324 305 351 305L384 305L384 322Q384 471 247 471Q167 471 104 423L80 457Q109 482 155 497Q201 512 249 512Q336 512 381 464Q426 416 426 323L426 0L384 0L384 66L388 111L386 111Q366 59 319.50 23.50Q273-12 211-12Q143-12 92 25.50Q41 63 41 133M85 136Q85 93 119 60Q153 27 213 27Q290 27 337 92.50Q384 158 384 239L384 266L352 266Q321 266 301.50 265.50Q282 265 245.50 261.50Q209 258 185.50 249.50Q162 241 136.50 227.50Q111 214 98 190.50Q85 167 85 136M143 589L223 700L275 700L355 589L306 589L250 669L248 669L192 589L143 589Z"  horiz-adv-x="508" vert-adv-y="1000"  />

      
      <glyph glyph-name="unie3" unicode="&#xe3;" d="M41 133Q41 168 54 196Q67 224 86 241.50Q105 259 135.50 272Q166 285 191 291Q216 297 251 300.50Q286 304 305 304.50Q324 305 351 305L384 305L384 322Q384 471 247 471Q167 471 104 423L80 457Q109 482 155 497Q201 512 249 512Q336 512 381 464Q426 416 426 323L426 0L384 0L384 66L388 111L386 111Q366 59 319.50 23.50Q273-12 211-12Q143-12 92 25.50Q41 63 41 133M85 136Q85 93 119 60Q153 27 213 27Q290 27 337 92.50Q384 158 384 239L384 266L352 266Q321 266 301.50 265.50Q282 265 245.50 261.50Q209 258 185.50 249.50Q162 241 136.50 227.50Q111 214 98 190.50Q85 167 85 136M105 592Q105 700 188 700Q211 700 229.50 688.50Q248 677 258.50 663Q269 649 284 637.50Q299 626 314 626Q354 626 354 697L394 697Q394 589 311 589Q288 589 269.50 600.50Q251 612 240.50 626Q230 640 215 651.50Q200 663 185 663Q145 663 145 592L105 592Z"  horiz-adv-x="508" vert-adv-y="1000"  />

      
      <glyph glyph-name="unie4" unicode="&#xe4;" d="M41 133Q41 168 54 196Q67 224 86 241.50Q105 259 135.50 272Q166 285 191 291Q216 297 251 300.50Q286 304 305 304.50Q324 305 351 305L384 305L384 322Q384 471 247 471Q167 471 104 423L80 457Q109 482 155 497Q201 512 249 512Q336 512 381 464Q426 416 426 323L426 0L384 0L384 66L388 111L386 111Q366 59 319.50 23.50Q273-12 211-12Q143-12 92 25.50Q41 63 41 133M85 136Q85 93 119 60Q153 27 213 27Q290 27 337 92.50Q384 158 384 239L384 266L352 266Q321 266 301.50 265.50Q282 265 245.50 261.50Q209 258 185.50 249.50Q162 241 136.50 227.50Q111 214 98 190.50Q85 167 85 136M295 627L295 700L341 700L341 627L295 627M158 627L158 700L204 700L204 627L158 627Z"  horiz-adv-x="508" vert-adv-y="1000"  />

      
      <glyph glyph-name="unie5" unicode="&#xe5;" d="M41 133Q41 168 54 196Q67 224 86 241.50Q105 259 135.50 272Q166 285 191 291Q216 297 251 300.50Q286 304 305 304.50Q324 305 351 305L384 305L384 322Q384 471 247 471Q167 471 104 423L80 457Q109 482 155 497Q201 512 249 512Q336 512 381 464Q426 416 426 323L426 0L384 0L384 66L388 111L386 111Q366 59 319.50 23.50Q273-12 211-12Q143-12 92 25.50Q41 63 41 133M85 136Q85 93 119 60Q153 27 213 27Q290 27 337 92.50Q384 158 384 239L384 266L352 266Q321 266 301.50 265.50Q282 265 245.50 261.50Q209 258 185.50 249.50Q162 241 136.50 227.50Q111 214 98 190.50Q85 167 85 136M297 598.50Q297 598.50 287.50 588.75Q278 579 249 579Q220 579 201 598.50Q182 618 182 646Q182 674 201 693.50Q220 713 249 713Q278 713 297 693.50Q316 674 316 646Q316 618 297 598.50M226 623Q226 623 230.50 618.50Q235 614 249 614Q263 614 272 623Q281 632 281 646Q281 661 272 670Q263 679 249 679Q235 679 226 670Q217 661 217 646Q217 632 226 623Z"  horiz-adv-x="508" vert-adv-y="1000"  />

      
      <glyph glyph-name="unie6" unicode="&#xe6;" d="M42 133Q42 167 53 194Q64 221 80.50 238Q97 255 124 267.50Q151 280 174.50 286Q198 292 233 295.50Q268 299 289.50 299.50Q311 300 344 300L384 300L384 322Q384 471 243 471Q166 471 104 423L80 457Q109 483 154 497.50Q199 512 245 512Q389 512 417 395L419 395Q449 453 500.50 482.50Q552 512 617 512Q713 512 766 448Q819 384 819 289Q819 277 817 261L426 261Q426 151 482.50 90Q539 29 630 29Q722 29 785 92L808 57Q775 26 726.50 7Q678-12 630-12Q552-12 492 28.50Q432 69 405 141L403 141Q400 126 389.50 105Q379 84 358.50 55.50Q338 27 300 7.50Q262-12 214-12Q141-12 91.50 26Q42 64 42 133M430 300L775 300Q771 386 725 429Q679 472 614 472Q542 472 492 428Q442 384 430 300M86 136Q86 91 120 59Q154 27 214 27Q291 27 337.50 92.50Q384 158 384 239L384 261L315 261Q281 261 255.50 259.50Q230 258 195.50 251Q161 244 139.50 231.50Q118 219 102 194.50Q86 170 86 136Z"  horiz-adv-x="869" vert-adv-y="1000"  />

      
      <glyph glyph-name="unie7" unicode="&#xe7;" d="M263-93L281-10Q182 0 117.50 70.50Q53 141 53 249Q53 365 128.50 438.50Q204 512 311 512Q361 512 409.50 494Q458 476 490 441L464 407Q437 436 395.50 453.50Q354 471 311 471Q221 471 159 409.50Q97 348 97 249Q97 151 159 90Q221 29 311 29Q358 29 403 48Q448 67 478 101L500 66Q469 31 420 10Q371-11 316-12L307-60Q338-65 357-83Q376-101 376-128Q376-167 350-185.50Q324-204 285-204Q260-204 241-200L241-162Q258-167 282-167Q336-167 336-130Q336-92 275-92L263-93Z"  horiz-adv-x="542" vert-adv-y="1000"  />

      
      <glyph glyph-name="unie8" unicode="&#xe8;" d="M52 249Q52 371 123 441.50Q194 512 295 512Q392 512 445.50 446.50Q499 381 499 284Q499 275 497 257L96 257Q96 152 157.50 90.50Q219 29 310 29Q402 29 465 92L488 57Q455 26 406.50 7Q358-12 310-12Q201-12 126.50 60.50Q52 133 52 249M99 296L455 296Q451 383 406 428Q361 473 294 473Q221 473 166.50 426.50Q112 380 99 296M276 589L197 700L253 700L320 589L276 589Z"  horiz-adv-x="549" vert-adv-y="1000"  />

      
      <glyph glyph-name="unie9" unicode="&#xe9;" d="M52 249Q52 371 123 441.50Q194 512 295 512Q392 512 445.50 446.50Q499 381 499 284Q499 275 497 257L96 257Q96 152 157.50 90.50Q219 29 310 29Q402 29 465 92L488 57Q455 26 406.50 7Q358-12 310-12Q201-12 126.50 60.50Q52 133 52 249M99 296L455 296Q451 383 406 428Q361 473 294 473Q221 473 166.50 426.50Q112 380 99 296M274 589L341 700L397 700L318 589L274 589Z"  horiz-adv-x="549" vert-adv-y="1000"  />

      
      <glyph glyph-name="uniea" unicode="&#xea;" d="M52 249Q52 371 123 441.50Q194 512 295 512Q392 512 445.50 446.50Q499 381 499 284Q499 275 497 257L96 257Q96 152 157.50 90.50Q219 29 310 29Q402 29 465 92L488 57Q455 26 406.50 7Q358-12 310-12Q201-12 126.50 60.50Q52 133 52 249M99 296L455 296Q451 383 406 428Q361 473 294 473Q221 473 166.50 426.50Q112 380 99 296M191 589L271 700L323 700L403 589L354 589L298 669L296 669L240 589L191 589Z"  horiz-adv-x="549" vert-adv-y="1000"  />

      
      <glyph glyph-name="unieb" unicode="&#xeb;" d="M52 249Q52 371 123 441.50Q194 512 295 512Q392 512 445.50 446.50Q499 381 499 284Q499 275 497 257L96 257Q96 152 157.50 90.50Q219 29 310 29Q402 29 465 92L488 57Q455 26 406.50 7Q358-12 310-12Q201-12 126.50 60.50Q52 133 52 249M99 296L455 296Q451 383 406 428Q361 473 294 473Q221 473 166.50 426.50Q112 380 99 296M343 627L343 700L389 700L389 627L343 627M206 627L206 700L252 700L252 627L206 627Z"  horiz-adv-x="549" vert-adv-y="1000"  />

      
      <glyph glyph-name="uniec" unicode="&#xec;" d="M87 0L87 500L129 500L129 0L87 0M87 589L8 700L64 700L131 589L87 589Z"  horiz-adv-x="216" vert-adv-y="1000"  />

      
      <glyph glyph-name="unied" unicode="&#xed;" d="M87 0L87 500L129 500L129 0L87 0M86 589L153 700L209 700L130 589L86 589Z"  horiz-adv-x="216" vert-adv-y="1000"  />

      
      <glyph glyph-name="uniee" unicode="&#xee;" d="M87 0L87 500L129 500L129 0L87 0M3 589L83 700L135 700L215 589L166 589L110 669L108 669L52 589L3 589Z"  horiz-adv-x="216" vert-adv-y="1000"  />

      
      <glyph glyph-name="unief" unicode="&#xef;" d="M87 0L87 500L129 500L129 0L87 0M155 627L155 700L201 700L201 627L155 627M18 627L18 700L64 700L64 627L18 627Z"  horiz-adv-x="216" vert-adv-y="1000"  />

      
      <glyph glyph-name="unif0" unicode="&#xf0;" d="M115 60.50Q115 60.50 84.50 96.75Q54 133 54 230Q54 327 117.50 397.50Q181 468 295 468Q344 468 384.50 451.50Q425 435 441 418L457 402L459 402Q423 515 322 585L150 505L133 542L279 610Q213 645 126 667L138 705Q252 676 326 631L449 689L466 652L365 605Q521 486 521 270Q521 218 506.50 169.50Q492 121 463.50 79.50Q435 38 387 13Q339-12 279-12Q176-12 115 60.50M149 369.50Q149 369.50 123.50 340.25Q98 311 98 230Q98 149 148 88.50Q198 28 281 28Q346 28 392 65.50Q438 103 457.50 154.50Q477 206 477 263Q477 335 426.50 381.50Q376 428 294 428Q200 428 149 369.50Z"  horiz-adv-x="577" vert-adv-y="1000"  />

      
      <glyph glyph-name="unif1" unicode="&#xf1;" d="M87 0L87 500L129 500L129 412L125 371L127 371Q144 419 200 465.50Q256 512 339 512Q431 512 467.50 462.50Q504 413 504 317L504 0L462 0L462 302Q462 332 460 353.50Q458 375 451 398.50Q444 422 431 437Q418 452 394.50 461.50Q371 471 339 471Q252 471 190.50 407.50Q129 344 129 249L129 0L87 0M163 592Q163 700 246 700Q269 700 287.50 688.50Q306 677 316.50 663Q327 649 342 637.50Q357 626 372 626Q412 626 412 697L452 697Q452 589 369 589Q346 589 327.50 600.50Q309 612 298.50 626Q288 640 273 651.50Q258 663 243 663Q203 663 203 592L163 592Z"  horiz-adv-x="586" vert-adv-y="1000"  />

      
      <glyph glyph-name="unif2" unicode="&#xf2;" d="M51 253Q51 362 126.50 437Q202 512 310 512Q418 512 493.50 437Q569 362 569 253Q569 142 493.50 65Q418-12 310-12Q202-12 126.50 65Q51 142 51 253M95 253Q95 158 157.50 93.50Q220 29 310 29Q400 29 462.50 93.50Q525 158 525 253Q525 345 462.50 408Q400 471 310 471Q220 471 157.50 408Q95 345 95 253M288 589L209 700L265 700L332 589L288 589Z"  horiz-adv-x="620" vert-adv-y="1000"  />

      
      <glyph glyph-name="unif3" unicode="&#xf3;" d="M51 253Q51 362 126.50 437Q202 512 310 512Q418 512 493.50 437Q569 362 569 253Q569 142 493.50 65Q418-12 310-12Q202-12 126.50 65Q51 142 51 253M95 253Q95 158 157.50 93.50Q220 29 310 29Q400 29 462.50 93.50Q525 158 525 253Q525 345 462.50 408Q400 471 310 471Q220 471 157.50 408Q95 345 95 253M287 589L354 700L410 700L331 589L287 589Z"  horiz-adv-x="620" vert-adv-y="1000"  />

      
      <glyph glyph-name="unif4" unicode="&#xf4;" d="M51 253Q51 362 126.50 437Q202 512 310 512Q418 512 493.50 437Q569 362 569 253Q569 142 493.50 65Q418-12 310-12Q202-12 126.50 65Q51 142 51 253M95 253Q95 158 157.50 93.50Q220 29 310 29Q400 29 462.50 93.50Q525 158 525 253Q525 345 462.50 408Q400 471 310 471Q220 471 157.50 408Q95 345 95 253M204 589L284 700L336 700L416 589L367 589L311 669L309 669L253 589L204 589Z"  horiz-adv-x="620" vert-adv-y="1000"  />

      
      <glyph glyph-name="unif5" unicode="&#xf5;" d="M51 253Q51 362 126.50 437Q202 512 310 512Q418 512 493.50 437Q569 362 569 253Q569 142 493.50 65Q418-12 310-12Q202-12 126.50 65Q51 142 51 253M95 253Q95 158 157.50 93.50Q220 29 310 29Q400 29 462.50 93.50Q525 158 525 253Q525 345 462.50 408Q400 471 310 471Q220 471 157.50 408Q95 345 95 253M166 592Q166 700 249 700Q272 700 290.50 688.50Q309 677 319.50 663Q330 649 345 637.50Q360 626 375 626Q415 626 415 697L455 697Q455 589 372 589Q349 589 330.50 600.50Q312 612 301.50 626Q291 640 276 651.50Q261 663 246 663Q206 663 206 592L166 592Z"  horiz-adv-x="620" vert-adv-y="1000"  />

      
      <glyph glyph-name="unif6" unicode="&#xf6;" d="M51 253Q51 362 126.50 437Q202 512 310 512Q418 512 493.50 437Q569 362 569 253Q569 142 493.50 65Q418-12 310-12Q202-12 126.50 65Q51 142 51 253M95 253Q95 158 157.50 93.50Q220 29 310 29Q400 29 462.50 93.50Q525 158 525 253Q525 345 462.50 408Q400 471 310 471Q220 471 157.50 408Q95 345 95 253M356 627L356 700L402 700L402 627L356 627M219 627L219 700L265 700L265 627L219 627Z"  horiz-adv-x="620" vert-adv-y="1000"  />

      
      <glyph glyph-name="unif7" unicode="&#xf7;" d="M251 431L251 490L308 490L308 431L251 431M42 263L42 303L518 303L518 263L42 263M251 76L251 135L308 135L308 76L251 76Z"  horiz-adv-x="560" vert-adv-y="1000"  />

      
      <glyph glyph-name="unif8" unicode="&#xf8;" d="M110-3L146 48Q52 126 52 253Q52 362 127.50 437Q203 512 311 512Q387 512 449 473L487 526L521 500L483 447Q570 370 570 253Q570 142 494.50 65Q419-12 311-12Q239-12 181 23L144-29L110-3M170 82L425 439Q372 471 311 471Q221 471 158.50 408Q96 345 96 253Q96 149 170 82M205 57Q253 29 311 29Q401 29 463.50 93.50Q526 158 526 253Q526 349 458 412L205 57Z"  horiz-adv-x="621" vert-adv-y="1000"  />

      
      <glyph glyph-name="unif9" unicode="&#xf9;" d="M81 183L81 500L123 500L123 198Q123 168 125 146.50Q127 125 134 101.50Q141 78 154 63Q167 48 190.50 38.50Q214 29 246 29Q336 29 393.50 96.50Q451 164 451 256L451 500L493 500L493 0L451 0L451 88L455 129L453 129Q436 81 381 34.50Q326-12 246-12Q157-12 119 36Q81 84 81 183M266 589L187 700L243 700L310 589L266 589Z"  horiz-adv-x="580" vert-adv-y="1000"  />

      
      <glyph glyph-name="unifa" unicode="&#xfa;" d="M81 183L81 500L123 500L123 198Q123 168 125 146.50Q127 125 134 101.50Q141 78 154 63Q167 48 190.50 38.50Q214 29 246 29Q336 29 393.50 96.50Q451 164 451 256L451 500L493 500L493 0L451 0L451 88L455 129L453 129Q436 81 381 34.50Q326-12 246-12Q157-12 119 36Q81 84 81 183M264 589L331 700L387 700L308 589L264 589Z"  horiz-adv-x="580" vert-adv-y="1000"  />

      
      <glyph glyph-name="unifb" unicode="&#xfb;" d="M81 183L81 500L123 500L123 198Q123 168 125 146.50Q127 125 134 101.50Q141 78 154 63Q167 48 190.50 38.50Q214 29 246 29Q336 29 393.50 96.50Q451 164 451 256L451 500L493 500L493 0L451 0L451 88L455 129L453 129Q436 81 381 34.50Q326-12 246-12Q157-12 119 36Q81 84 81 183M181 589L261 700L313 700L393 589L344 589L288 669L286 669L230 589L181 589Z"  horiz-adv-x="580" vert-adv-y="1000"  />

      
      <glyph glyph-name="unifc" unicode="&#xfc;" d="M81 183L81 500L123 500L123 198Q123 168 125 146.50Q127 125 134 101.50Q141 78 154 63Q167 48 190.50 38.50Q214 29 246 29Q336 29 393.50 96.50Q451 164 451 256L451 500L493 500L493 0L451 0L451 88L455 129L453 129Q436 81 381 34.50Q326-12 246-12Q157-12 119 36Q81 84 81 183M333 627L333 700L379 700L379 627L333 627M196 627L196 700L242 700L242 627L196 627Z"  horiz-adv-x="580" vert-adv-y="1000"  />

      
      <glyph glyph-name="unifd" unicode="&#xfd;" d="M41-146Q69-170 103-170Q163-170 201-80L237 3L30 500L75 500L240 101L258 54L260 54Q267 77 277 101L442 500L487 500L230-117Q191-210 103-210Q82-210 61.50-203Q41-196 32-189L22-182L41-146M236 589L303 700L359 700L280 589L236 589Z"  horiz-adv-x="517" vert-adv-y="1000"  />

      
      <glyph glyph-name="unife" unicode="&#xfe;" d="M87-200L87 700L129 700L129 445L128 405L130 405Q149 451 197 481.50Q245 512 308 512Q407 512 465.50 440Q524 368 524 250Q524 132 462 60Q400-12 302-12Q247-12 198.50 17Q150 46 129 96L127 96Q129 78 129 52L129-200L87-200M128 249Q128 160 175 94Q222 28 302 28Q378 28 429 88Q480 148 480 250Q480 350 431.50 410.50Q383 471 306 471Q230 471 179 415.50Q128 360 128 249Z"  horiz-adv-x="578" vert-adv-y="1000"  />

      
      <glyph glyph-name="uniff" unicode="&#xff;" d="M41-146Q69-170 103-170Q163-170 201-80L237 3L30 500L75 500L240 101L258 54L260 54Q267 77 277 101L442 500L487 500L230-117Q191-210 103-210Q82-210 61.50-203Q41-196 32-189L22-182L41-146M305 627L305 700L351 700L351 627L305 627M168 627L168 700L214 700L214 627L168 627Z"  horiz-adv-x="517" vert-adv-y="1000"  />

      
      <glyph glyph-name="uni0100" unicode="&#x0100;" d="M27 0L289 700L335 700L597 0L551 0L460 242L163 242L73 0L27 0M178 282L445 282L339 566L313 650L311 650Q296 596 285 566L178 282M193 786L193 826L432 826L432 786L193 786Z"  horiz-adv-x="624" vert-adv-y="1000"  />

      
      <glyph glyph-name="uni0101" unicode="&#x0101;" d="M41 133Q41 168 54 196Q67 224 86 241.50Q105 259 135.50 272Q166 285 191 291Q216 297 251 300.50Q286 304 305 304.50Q324 305 351 305L384 305L384 322Q384 471 247 471Q167 471 104 423L80 457Q109 482 155 497Q201 512 249 512Q336 512 381 464Q426 416 426 323L426 0L384 0L384 66L388 111L386 111Q366 59 319.50 23.50Q273-12 211-12Q143-12 92 25.50Q41 63 41 133M85 136Q85 93 119 60Q153 27 213 27Q290 27 337 92.50Q384 158 384 239L384 266L352 266Q321 266 301.50 265.50Q282 265 245.50 261.50Q209 258 185.50 249.50Q162 241 136.50 227.50Q111 214 98 190.50Q85 167 85 136M130 625L130 665L369 665L369 625L130 625Z"  horiz-adv-x="508" vert-adv-y="1000"  />

      
      <glyph glyph-name="uni0102" unicode="&#x0102;" d="M27 0L289 700L335 700L597 0L551 0L460 242L163 242L73 0L27 0M178 282L445 282L339 566L313 650L311 650Q296 596 285 566L178 282M383 772.50Q383 772.50 368 759.75Q353 747 312 747Q271 747 241 772.50Q211 798 211 845L211 861L251 861L251 847Q251 816 268 800.50Q285 785 312 785Q338 785 355.50 800.50Q373 816 373 848L373 861L413 861L413 845Q413 798 383 772.50Z"  horiz-adv-x="624" vert-adv-y="1000"  />

      
      <glyph glyph-name="uni0103" unicode="&#x0103;" d="M41 133Q41 168 54 196Q67 224 86 241.50Q105 259 135.50 272Q166 285 191 291Q216 297 251 300.50Q286 304 305 304.50Q324 305 351 305L384 305L384 322Q384 471 247 471Q167 471 104 423L80 457Q109 482 155 497Q201 512 249 512Q336 512 381 464Q426 416 426 323L426 0L384 0L384 66L388 111L386 111Q366 59 319.50 23.50Q273-12 211-12Q143-12 92 25.50Q41 63 41 133M85 136Q85 93 119 60Q153 27 213 27Q290 27 337 92.50Q384 158 384 239L384 266L352 266Q321 266 301.50 265.50Q282 265 245.50 261.50Q209 258 185.50 249.50Q162 241 136.50 227.50Q111 214 98 190.50Q85 167 85 136M320 611.50Q320 611.50 305 598.75Q290 586 249 586Q208 586 178 611.50Q148 637 148 684L148 700L188 700L188 686Q188 655 205 639.50Q222 624 249 624Q275 624 292.50 639.50Q310 655 310 687L310 700L350 700L350 684Q350 637 320 611.50Z"  horiz-adv-x="508" vert-adv-y="1000"  />

      
      <glyph glyph-name="uni0104" unicode="&#x0104;" d="M27 0L289 700L335 700L597 0Q517-59 517-109Q517-131 534-145Q551-159 568-162L585-165L576-204Q572-204 565-203Q558-202 540-196.50Q522-191 508-182Q494-173 483-155Q472-137 472-113Q472-47 548 7L460 242L163 242L73 0L27 0M178 282L445 282L339 566L313 650L311 650Q296 596 285 566L178 282Z"  horiz-adv-x="624" vert-adv-y="1000"  />

      
      <glyph glyph-name="uni0105" unicode="&#x0105;" d="M41 133Q41 168 54 196Q67 224 86 241.50Q105 259 135.50 272Q166 285 191 291Q216 297 251 300.50Q286 304 305 304.50Q324 305 351 305L384 305L384 322Q384 471 247 471Q167 471 104 423L80 457Q109 482 155 497Q201 512 249 512Q336 512 381 464Q426 416 426 323L426 0Q346-59 346-109Q346-131 363-145Q380-159 397-162L414-165L405-204Q401-204 394-203Q387-202 369-196.50Q351-191 337-182Q323-173 312-155Q301-137 301-113Q301-50 384 7L384 66L388 111L386 111Q366 59 319.50 23.50Q273-12 211-12Q143-12 92 25.50Q41 63 41 133M85 136Q85 93 119 60Q153 27 213 27Q290 27 337 92.50Q384 158 384 239L384 266L352 266Q321 266 301.50 265.50Q282 265 245.50 261.50Q209 258 185.50 249.50Q162 241 136.50 227.50Q111 214 98 190.50Q85 167 85 136Z"  horiz-adv-x="508" vert-adv-y="1000"  />

      
      <glyph glyph-name="uni0106" unicode="&#x0106;" d="M60 355Q60 508 158 610Q256 712 407 712Q563 712 657 624L631 592Q589 629 529 650Q469 671 408 671Q275 671 190 581.50Q105 492 105 355Q105 216 190.50 122.50Q276 29 411 29Q551 29 648 124L675 94Q565-12 411-12Q256-12 158 94Q60 200 60 355M379 750L446 861L502 861L423 750L379 750Z"  horiz-adv-x="719" vert-adv-y="1000"  />

      
      <glyph glyph-name="uni0107" unicode="&#x0107;" d="M126.50 60.50Q126.50 60.50 89.25 96.75Q52 133 52 249Q52 365 127.50 438.50Q203 512 310 512Q360 512 408.50 494Q457 476 489 441L463 407Q436 436 394.50 453.50Q353 471 310 471Q220 471 158 409.50Q96 348 96 249Q96 151 158 90Q220 29 310 29Q357 29 402 48Q447 67 477 101L499 66Q467 30 416.50 9Q366-12 310-12Q201-12 126.50 60.50M269 589L336 700L392 700L313 589L269 589Z"  horiz-adv-x="540" vert-adv-y="1000"  />

      
      <glyph glyph-name="uni0108" unicode="&#x0108;" d="M60 355Q60 508 158 610Q256 712 407 712Q563 712 657 624L631 592Q589 629 529 650Q469 671 408 671Q275 671 190 581.50Q105 492 105 355Q105 216 190.50 122.50Q276 29 411 29Q551 29 648 124L675 94Q565-12 411-12Q256-12 158 94Q60 200 60 355M296 750L376 861L428 861L508 750L459 750L403 830L401 830L345 750L296 750Z"  horiz-adv-x="719" vert-adv-y="1000"  />

      
      <glyph glyph-name="uni0109" unicode="&#x0109;" d="M126.50 60.50Q126.50 60.50 89.25 96.75Q52 133 52 249Q52 365 127.50 438.50Q203 512 310 512Q360 512 408.50 494Q457 476 489 441L463 407Q436 436 394.50 453.50Q353 471 310 471Q220 471 158 409.50Q96 348 96 249Q96 151 158 90Q220 29 310 29Q357 29 402 48Q447 67 477 101L499 66Q467 30 416.50 9Q366-12 310-12Q201-12 126.50 60.50M186 589L266 700L318 700L398 589L349 589L293 669L291 669L235 589L186 589Z"  horiz-adv-x="540" vert-adv-y="1000"  />

      
      <glyph glyph-name="uni010A" unicode="&#x010A;" d="M60 355Q60 508 158 610Q256 712 407 712Q563 712 657 624L631 592Q589 629 529 650Q469 671 408 671Q275 671 190 581.50Q105 492 105 355Q105 216 190.50 122.50Q276 29 411 29Q551 29 648 124L675 94Q565-12 411-12Q256-12 158 94Q60 200 60 355M379 788L379 861L425 861L425 788L379 788Z"  horiz-adv-x="719" vert-adv-y="1000"  />

      
      <glyph glyph-name="uni010B" unicode="&#x010B;" d="M126.50 60.50Q126.50 60.50 89.25 96.75Q52 133 52 249Q52 365 127.50 438.50Q203 512 310 512Q360 512 408.50 494Q457 476 489 441L463 407Q436 436 394.50 453.50Q353 471 310 471Q220 471 158 409.50Q96 348 96 249Q96 151 158 90Q220 29 310 29Q357 29 402 48Q447 67 477 101L499 66Q467 30 416.50 9Q366-12 310-12Q201-12 126.50 60.50M269 627L269 700L315 700L315 627L269 627Z"  horiz-adv-x="540" vert-adv-y="1000"  />

      
      <glyph glyph-name="uni010C" unicode="&#x010C;" d="M60 355Q60 508 158 610Q256 712 407 712Q563 712 657 624L631 592Q589 629 529 650Q469 671 408 671Q275 671 190 581.50Q105 492 105 355Q105 216 190.50 122.50Q276 29 411 29Q551 29 648 124L675 94Q565-12 411-12Q256-12 158 94Q60 200 60 355M376 750L296 861L345 861L401 781L403 781L459 861L508 861L428 750L376 750Z"  horiz-adv-x="719" vert-adv-y="1000"  />

      
      <glyph glyph-name="uni010D" unicode="&#x010D;" d="M126.50 60.50Q126.50 60.50 89.25 96.75Q52 133 52 249Q52 365 127.50 438.50Q203 512 310 512Q360 512 408.50 494Q457 476 489 441L463 407Q436 436 394.50 453.50Q353 471 310 471Q220 471 158 409.50Q96 348 96 249Q96 151 158 90Q220 29 310 29Q357 29 402 48Q447 67 477 101L499 66Q467 30 416.50 9Q366-12 310-12Q201-12 126.50 60.50M266 589L186 700L235 700L291 620L293 620L349 700L398 700L318 589L266 589Z"  horiz-adv-x="540" vert-adv-y="1000"  />

      
      <glyph glyph-name="uni010E" unicode="&#x010E;" d="M107 0L107 700L327 700Q485 700 580.50 607Q676 514 676 350Q676 185 581 92.50Q486 0 327 0L107 0M150 40L320 40Q462 40 546.50 121Q631 202 631 350Q631 497 546.50 578.50Q462 660 320 660L150 660L150 40M315 750L235 861L284 861L340 781L342 781L398 861L447 861L367 750L315 750Z"  horiz-adv-x="738" vert-adv-y="1000"  />

      
      <glyph glyph-name="uni010F" unicode="&#x010F;" d="M112.50 60Q112.50 60 83.25 96Q54 132 54 250Q54 368 116.50 440Q179 512 278 512Q335 512 381 481Q427 450 451 399L453 399Q449 417 449 440L449 700L491 700L491 0L449 0L449 63L453 101L451 101Q429 52 382.50 20Q336-12 270-12Q171-12 112.50 60M98 250Q98 150 146.50 89.50Q195 29 272 29Q348 29 399 84.50Q450 140 450 251Q450 341 404.50 406Q359 471 276 471Q200 471 149 411.50Q98 352 98 250M558 700L606 700Q612 674 612 653Q612 616 590 566L551 566Q569 613 569 644Q569 671 558 700Z"  horiz-adv-x="578" vert-adv-y="1000"  />

      
      <glyph glyph-name="uni0110" unicode="&#x0110;" d="M113 0L113 333L53 333L53 373L113 373L113 700L333 700Q491 700 586.50 607Q682 514 682 350Q682 185 587 92.50Q492 0 333 0L113 0M156 40L326 40Q468 40 552.50 121Q637 202 637 350Q637 497 552.50 578.50Q468 660 326 660L156 660L156 373L339 373L339 333L156 333L156 40Z"  horiz-adv-x="744" vert-adv-y="1000"  />

      
      <glyph glyph-name="uni0111" unicode="&#x0111;" d="M112.50 60Q112.50 60 83.25 96Q54 132 54 250Q54 368 116.50 440Q179 512 278 512Q334 512 380 483Q426 454 449 404L451 404Q449 422 449 445L449 569L316 569L316 609L449 609L449 700L491 700L491 609L574 609L574 569L491 569L491 0L449 0L449 58L451 96L449 96Q430 51 383 19.50Q336-12 270-12Q171-12 112.50 60M98 250Q98 150 146.50 89.50Q195 29 272 29Q348 29 399 84.50Q450 140 450 251Q450 341 404.50 406.50Q359 472 276 472Q200 472 149 412Q98 352 98 250Z"  horiz-adv-x="578" vert-adv-y="1000"  />

      
      <glyph glyph-name="uni0112" unicode="&#x0112;" d="M107 0L107 700L490 700L490 660L150 660L150 373L429 373L429 333L150 333L150 40L509 40L509 0L107 0M192 786L192 826L431 826L431 786L192 786Z"  horiz-adv-x="556" vert-adv-y="1000"  />

      
      <glyph glyph-name="uni0113" unicode="&#x0113;" d="M52 249Q52 371 123 441.50Q194 512 295 512Q392 512 445.50 446.50Q499 381 499 284Q499 275 497 257L96 257Q96 152 157.50 90.50Q219 29 310 29Q402 29 465 92L488 57Q455 26 406.50 7Q358-12 310-12Q201-12 126.50 60.50Q52 133 52 249M99 296L455 296Q451 383 406 428Q361 473 294 473Q221 473 166.50 426.50Q112 380 99 296M178 625L178 665L417 665L417 625L178 625Z"  horiz-adv-x="549" vert-adv-y="1000"  />

      
      <glyph glyph-name="uni0114" unicode="&#x0114;" d="M107 0L107 700L490 700L490 660L150 660L150 373L429 373L429 333L150 333L150 40L509 40L509 0L107 0M382 772.50Q382 772.50 367 759.75Q352 747 311 747Q270 747 240 772.50Q210 798 210 845L210 861L250 861L250 847Q250 816 267 800.50Q284 785 311 785Q337 785 354.50 800.50Q372 816 372 848L372 861L412 861L412 845Q412 798 382 772.50Z"  horiz-adv-x="556" vert-adv-y="1000"  />

      
      <glyph glyph-name="uni0115" unicode="&#x0115;" d="M52 249Q52 371 123 441.50Q194 512 295 512Q392 512 445.50 446.50Q499 381 499 284Q499 275 497 257L96 257Q96 152 157.50 90.50Q219 29 310 29Q402 29 465 92L488 57Q455 26 406.50 7Q358-12 310-12Q201-12 126.50 60.50Q52 133 52 249M99 296L455 296Q451 383 406 428Q361 473 294 473Q221 473 166.50 426.50Q112 380 99 296M368 611.50Q368 611.50 353 598.75Q338 586 297 586Q256 586 226 611.50Q196 637 196 684L196 700L236 700L236 686Q236 655 253 639.50Q270 624 297 624Q323 624 340.50 639.50Q358 655 358 687L358 700L398 700L398 684Q398 637 368 611.50Z"  horiz-adv-x="549" vert-adv-y="1000"  />

      
      <glyph glyph-name="uni0116" unicode="&#x0116;" d="M107 0L107 700L490 700L490 660L150 660L150 373L429 373L429 333L150 333L150 40L509 40L509 0L107 0M288 788L288 861L334 861L334 788L288 788Z"  horiz-adv-x="556" vert-adv-y="1000"  />

      
      <glyph glyph-name="uni0117" unicode="&#x0117;" d="M52 249Q52 371 123 441.50Q194 512 295 512Q392 512 445.50 446.50Q499 381 499 284Q499 275 497 257L96 257Q96 152 157.50 90.50Q219 29 310 29Q402 29 465 92L488 57Q455 26 406.50 7Q358-12 310-12Q201-12 126.50 60.50Q52 133 52 249M99 296L455 296Q451 383 406 428Q361 473 294 473Q221 473 166.50 426.50Q112 380 99 296M274 627L274 700L320 700L320 627L274 627Z"  horiz-adv-x="549" vert-adv-y="1000"  />

      
      <glyph glyph-name="uni0118" unicode="&#x0118;" d="M107 0L107 700L490 700L490 660L150 660L150 373L429 373L429 333L150 333L150 40L509 40L509 0Q429-59 429-109Q429-131 446-145Q463-159 480-162L497-165L488-204Q484-204 477-203Q470-202 452-196.50Q434-191 420-182Q406-173 395-155Q384-137 384-113Q384-53 458 0L107 0Z"  horiz-adv-x="556" vert-adv-y="1000"  />

      
      <glyph glyph-name="uni0119" unicode="&#x0119;" d="M52 249Q52 371 123 441.50Q194 512 295 512Q392 512 445.50 446.50Q499 381 499 284L497 257L96 257Q96 152 157.50 90.50Q219 29 310 29Q397 29 465 92L488 57Q477 47 432 15.50Q387-16 360.50-46Q334-76 334-109Q334-131 351-145Q368-159 385-162L402-165L393-204Q389-204 382-203Q375-202 357-196.50Q339-191 325-182Q311-173 300-155Q289-137 289-113Q289-60 345-8Q325-12 310-12Q201-12 126.50 60.50Q52 133 52 249M99 296L455 296Q451 383 406 428Q361 473 294 473Q221 473 166.50 426.50Q112 380 99 296Z"  horiz-adv-x="550" vert-adv-y="1000"  />

      
      <glyph glyph-name="uni011A" unicode="&#x011A;" d="M107 0L107 700L490 700L490 660L150 660L150 373L429 373L429 333L150 333L150 40L509 40L509 0L107 0M285 750L205 861L254 861L310 781L312 781L368 861L417 861L337 750L285 750Z"  horiz-adv-x="556" vert-adv-y="1000"  />

      
      <glyph glyph-name="uni011B" unicode="&#x011B;" d="M52 249Q52 371 123 441.50Q194 512 295 512Q392 512 445.50 446.50Q499 381 499 284Q499 275 497 257L96 257Q96 152 157.50 90.50Q219 29 310 29Q402 29 465 92L488 57Q455 26 406.50 7Q358-12 310-12Q201-12 126.50 60.50Q52 133 52 249M99 296L455 296Q451 383 406 428Q361 473 294 473Q221 473 166.50 426.50Q112 380 99 296M271 589L191 700L240 700L296 620L298 620L354 700L403 700L323 589L271 589Z"  horiz-adv-x="549" vert-adv-y="1000"  />

      
      <glyph glyph-name="uni011C" unicode="&#x011C;" d="M60 350Q60 502 160.50 607Q261 712 409 712Q555 712 653 633L627 600Q588 632 528 651.50Q468 671 409 671Q278 671 191.50 579Q105 487 105 350Q105 213 189.50 121Q274 29 403 29Q471 29 534.50 60Q598 91 643 144L643 279L518 279L518 319L686 319L686 0L643 0L643 61L644 91L642 91Q601 45 538 16.50Q475-12 403-12Q257-12 158.50 92.50Q60 197 60 350M292 750L372 861L424 861L504 750L455 750L399 830L397 830L341 750L292 750Z"  horiz-adv-x="754" vert-adv-y="1000"  />

      
      <glyph glyph-name="uni011D" unicode="&#x011D;" d="M118-134Q183-169 252-169Q337-169 389.50-126.50Q442-84 442 3L442 61L446 102L444 102Q394 0 276 0Q178 0 116 71Q54 142 54 258Q54 375 112.50 443.50Q171 512 269 512Q327 512 374.50 487.50Q422 463 443 414L445 414Q442 421 442 433L442 500L484 500L484 3Q484-105 418.50-157.50Q353-210 255-210Q174-210 98-171L118-134M98 258Q98 158 148 99.50Q198 41 279 41Q352 41 397.50 92.50Q443 144 443 258Q443 471 269 471Q188 471 143 415Q98 359 98 258M173 589L253 700L305 700L385 589L336 589L280 669L278 669L222 589L173 589Z"  horiz-adv-x="571" vert-adv-y="1000"  />

      
      <glyph glyph-name="uni011E" unicode="&#x011E;" d="M60 350Q60 502 160.50 607Q261 712 409 712Q555 712 653 633L627 600Q588 632 528 651.50Q468 671 409 671Q278 671 191.50 579Q105 487 105 350Q105 213 189.50 121Q274 29 403 29Q471 29 534.50 60Q598 91 643 144L643 279L518 279L518 319L686 319L686 0L643 0L643 61L644 91L642 91Q601 45 538 16.50Q475-12 403-12Q257-12 158.50 92.50Q60 197 60 350M469 772.50Q469 772.50 454 759.75Q439 747 398 747Q357 747 327 772.50Q297 798 297 845L297 861L337 861L337 847Q337 816 354 800.50Q371 785 398 785Q424 785 441.50 800.50Q459 816 459 848L459 861L499 861L499 845Q499 798 469 772.50Z"  horiz-adv-x="754" vert-adv-y="1000"  />

      
      <glyph glyph-name="uni011F" unicode="&#x011F;" d="M118-134Q183-169 252-169Q337-169 389.50-126.50Q442-84 442 3L442 61L446 102L444 102Q394 0 276 0Q178 0 116 71Q54 142 54 258Q54 375 112.50 443.50Q171 512 269 512Q327 512 374.50 487.50Q422 463 443 414L445 414Q442 421 442 433L442 500L484 500L484 3Q484-105 418.50-157.50Q353-210 255-210Q174-210 98-171L118-134M98 258Q98 158 148 99.50Q198 41 279 41Q352 41 397.50 92.50Q443 144 443 258Q443 471 269 471Q188 471 143 415Q98 359 98 258M350 611.50Q350 611.50 335 598.75Q320 586 279 586Q238 586 208 611.50Q178 637 178 684L178 700L218 700L218 686Q218 655 235 639.50Q252 624 279 624Q305 624 322.50 639.50Q340 655 340 687L340 700L380 700L380 684Q380 637 350 611.50Z"  horiz-adv-x="571" vert-adv-y="1000"  />

      
      <glyph glyph-name="uni0120" unicode="&#x0120;" d="M60 350Q60 502 160.50 607Q261 712 409 712Q555 712 653 633L627 600Q588 632 528 651.50Q468 671 409 671Q278 671 191.50 579Q105 487 105 350Q105 213 189.50 121Q274 29 403 29Q471 29 534.50 60Q598 91 643 144L643 279L518 279L518 319L686 319L686 0L643 0L643 61L644 91L642 91Q601 45 538 16.50Q475-12 403-12Q257-12 158.50 92.50Q60 197 60 350M375 788L375 861L421 861L421 788L375 788Z"  horiz-adv-x="754" vert-adv-y="1000"  />

      
      <glyph glyph-name="uni0121" unicode="&#x0121;" d="M118-134Q183-169 252-169Q337-169 389.50-126.50Q442-84 442 3L442 61L446 102L444 102Q394 0 276 0Q178 0 116 71Q54 142 54 258Q54 375 112.50 443.50Q171 512 269 512Q327 512 374.50 487.50Q422 463 443 414L445 414Q442 421 442 433L442 500L484 500L484 3Q484-105 418.50-157.50Q353-210 255-210Q174-210 98-171L118-134M98 258Q98 158 148 99.50Q198 41 279 41Q352 41 397.50 92.50Q443 144 443 258Q443 471 269 471Q188 471 143 415Q98 359 98 258M256 627L256 700L302 700L302 627L256 627Z"  horiz-adv-x="571" vert-adv-y="1000"  />

      
      <glyph glyph-name="uni0122" unicode="&#x0122;" d="M60 350Q60 502 160.50 607Q261 712 409 712Q555 712 653 633L627 600Q588 632 528 651.50Q468 671 409 671Q278 671 191.50 579Q105 487 105 350Q105 213 189.50 121Q274 29 403 29Q471 29 534.50 60Q598 91 643 144L643 279L518 279L518 319L686 319L686 0L643 0L643 61L644 91L642 91Q601 45 538 16.50Q475-12 403-12Q257-12 158.50 92.50Q60 197 60 350M379-66L427-66Q433-92 433-113Q433-150 411-200L372-200Q390-153 390-122Q390-95 379-66Z"  horiz-adv-x="754" vert-adv-y="1000"  />

      
      <glyph glyph-name="uni0123" unicode="&#x0123;" d="M118-134Q183-169 252-169Q337-169 389.50-126.50Q442-84 442 3L442 61L446 102L444 102Q394 0 276 0Q178 0 116 71Q54 142 54 258Q54 375 112.50 443.50Q171 512 269 512Q327 512 374.50 487.50Q422 463 443 414L445 414Q442 421 442 433L442 500L484 500L484 3Q484-105 418.50-157.50Q353-210 255-210Q174-210 98-171L118-134M98 258Q98 158 148 99.50Q198 41 279 41Q352 41 397.50 92.50Q443 144 443 258Q443 471 269 471Q188 471 143 415Q98 359 98 258M305 566L257 566Q251 591 251 613Q251 650 273 700L312 700Q294 653 294 622Q294 595 305 566Z"  horiz-adv-x="571" vert-adv-y="1000"  />

      
      <glyph glyph-name="uni0124" unicode="&#x0124;" d="M107 0L107 700L150 700L150 371L594 371L594 700L637 700L637 0L594 0L594 331L150 331L150 0L107 0M266 750L346 861L398 861L478 750L429 750L373 830L371 830L315 750L266 750Z"  horiz-adv-x="744" vert-adv-y="1000"  />

      
      <glyph glyph-name="uni0125" unicode="&#x0125;" d="M87 0L87 700L129 700L129 412L125 371L127 371Q144 419 200 465.50Q256 512 339 512Q431 512 467.50 462.50Q504 413 504 317L504 0L462 0L462 302Q462 332 460 353.50Q458 375 451 398.50Q444 422 431 437Q418 452 394.50 461.50Q371 471 339 471Q252 471 190.50 407Q129 343 129 246L129 0L87 0M3 750L83 861L135 861L215 750L166 750L110 830L108 830L52 750L3 750Z"  horiz-adv-x="586" vert-adv-y="1000"  />

      
      <glyph glyph-name="uni0126" unicode="&#x0126;" d="M113 0L113 511L48 511L48 551L113 551L113 700L156 700L156 551L600 551L600 700L643 700L643 551L708 551L708 511L643 511L643 0L600 0L600 331L156 331L156 0L113 0M156 371L600 371L600 511L156 511L156 371Z"  horiz-adv-x="756" vert-adv-y="1000"  />

      
      <glyph glyph-name="uni0127" unicode="&#x0127;" d="M87 0L87 569L6 569L6 609L87 609L87 700L129 700L129 609L262 609L262 569L129 569L129 417L127 376L129 376Q146 423 201 467.50Q256 512 339 512Q431 512 467.50 462.50Q504 413 504 317L504 0L462 0L462 302Q462 332 460 353.50Q458 375 451 398.50Q444 422 431 437Q418 452 394.50 461.50Q371 471 339 471Q250 471 189.50 406Q129 341 129 249L129 0L87 0Z"  horiz-adv-x="586" vert-adv-y="1000"  />

      
      <glyph glyph-name="uni0128" unicode="&#x0128;" d="M107 0L107 700L150 700L150 0L107 0M-15 753Q-15 861 68 861Q91 861 109.50 849.50Q128 838 138.50 824Q149 810 164 798.50Q179 787 194 787Q234 787 234 858L274 858Q274 750 191 750Q168 750 149.50 761.50Q131 773 120.50 787Q110 801 95 812.50Q80 824 65 824Q25 824 25 753L-15 753Z"  horiz-adv-x="257" vert-adv-y="1000"  />

      
      <glyph glyph-name="uni0129" unicode="&#x0129;" d="M87 0L87 500L129 500L129 0L87 0M-35 592Q-35 700 48 700Q71 700 89.50 688.50Q108 677 118.50 663Q129 649 144 637.50Q159 626 174 626Q214 626 214 697L254 697Q254 589 171 589Q148 589 129.50 600.50Q111 612 100.50 626Q90 640 75 651.50Q60 663 45 663Q5 663 5 592L-35 592Z"  horiz-adv-x="216" vert-adv-y="1000"  />

      
      <glyph glyph-name="uni012A" unicode="&#x012A;" d="M107 0L107 700L150 700L150 0L107 0M10 786L10 826L249 826L249 786L10 786Z"  horiz-adv-x="257" vert-adv-y="1000"  />

      
      <glyph glyph-name="uni012B" unicode="&#x012B;" d="M87 0L87 500L129 500L129 0L87 0M-11 625L-11 665L228 665L228 625L-11 625Z"  horiz-adv-x="216" vert-adv-y="1000"  />

      
      <glyph glyph-name="uni012C" unicode="&#x012C;" d="M107 0L107 700L150 700L150 0L107 0M200 772.50Q200 772.50 185 759.75Q170 747 129 747Q88 747 58 772.50Q28 798 28 845L28 861L68 861L68 847Q68 816 85 800.50Q102 785 129 785Q155 785 172.50 800.50Q190 816 190 848L190 861L230 861L230 845Q230 798 200 772.50Z"  horiz-adv-x="257" vert-adv-y="1000"  />

      
      <glyph glyph-name="uni012D" unicode="&#x012D;" d="M87 0L87 500L129 500L129 0L87 0M180 611.50Q180 611.50 165 598.75Q150 586 109 586Q68 586 38 611.50Q8 637 8 684L8 700L48 700L48 686Q48 655 65 639.50Q82 624 109 624Q135 624 152.50 639.50Q170 655 170 687L170 700L210 700L210 684Q210 637 180 611.50Z"  horiz-adv-x="216" vert-adv-y="1000"  />

      
      <glyph glyph-name="uni012E" unicode="&#x012E;" d="M25-113Q25-77 51-44.50Q77-12 107 8L107 700L150 700L150 0Q70-59 70-109Q70-131 87-145Q104-159 121-162L138-165L129-204Q125-204 118-203Q111-202 93-196.50Q75-191 61-182Q47-173 36-155Q25-137 25-113Z"  horiz-adv-x="257" vert-adv-y="1000"  />

      
      <glyph glyph-name="uni012F" unicode="&#x012F;" d="M5-113Q5-50 88 7L88 500L130 500L130 0Q50-59 50-109Q50-131 67-145Q84-159 101-162L118-165L109-204Q105-204 98-203Q91-202 73-196.50Q55-191 41-182Q27-173 16-155Q5-137 5-113M84 627L84 700L134 700L134 627L84 627Z"  horiz-adv-x="217" vert-adv-y="1000"  />

      
      <glyph glyph-name="uni0130" unicode="&#x0130;" d="M107 0L107 700L150 700L150 0L107 0M106 788L106 861L152 861L152 788L106 788Z"  horiz-adv-x="257" vert-adv-y="1000"  />

      
      <glyph glyph-name="uni0131" unicode="&#x0131;" d="M87 0L87 500L129 500L129 0L87 0Z"  horiz-adv-x="216" vert-adv-y="1000"  />

      
      <glyph glyph-name="uni0132" unicode="&#x0132;" d="M259-5L259 37Q282 37 301.50 40.50Q321 44 342.50 55.50Q364 67 379 86Q394 105 403.50 139Q413 173 413 218L413 700L456 700L456 218Q456-5 259-5M107 0L107 700L150 700L150 0L107 0Z"  horiz-adv-x="556" vert-adv-y="1000"  />

      
      <glyph glyph-name="uni0133" unicode="&#x0133;" d="M83 627L83 700L133 700L133 627L83 627M87 0L87 500L129 500L129 0L87 0M299 627L299 700L349 700L349 627L299 627M303-21L303 500L345 500L345-20Q345-78 328-118Q311-158 283.50-175.50Q256-193 233-199Q210-205 186-205Q179-205 161-203L161-164Q167-166 183-166Q202-166 219.50-161Q237-156 257.50-142.50Q278-129 290.50-97.50Q303-66 303-21Z"  horiz-adv-x="432" vert-adv-y="1000"  />

      
      <glyph glyph-name="uni0134" unicode="&#x0134;" d="M35 191L35 213L78 213L78 190Q78 121 114.50 75Q151 29 221 29Q282 29 324 67.50Q366 106 366 190L366 660L199 660L199 700L409 700L409 191Q409 87 354.50 37.50Q300-12 222-12Q144-12 89.50 37.50Q35 87 35 191M198 750L278 861L330 861L410 750L361 750L305 830L303 830L247 750L198 750Z"  horiz-adv-x="509" vert-adv-y="1000"  />

      
      <glyph glyph-name="uni0135" unicode="&#x0135;" d="M-2 589L78 700L130 700L210 589L161 589L105 669L103 669L47 589L-2 589M87-21L87 500L129 500L129-20Q129-78 112-118Q95-158 67.50-175.50Q40-193 17-199Q-6-205-30-205Q-46-205-55-203L-55-164Q-41-166-33-166Q-14-166 3.50-161Q21-156 41.50-142.50Q62-129 74.50-97.50Q87-66 87-21Z"  horiz-adv-x="216" vert-adv-y="1000"  />

      
      <glyph glyph-name="uni0136" unicode="&#x0136;" d="M107 0L107 700L150 700L150 388L280 388L480 700L532 700L317 370L317 368L546 0L494 0L280 348L150 348L150 0L107 0M276-66L324-66Q330-92 330-113Q330-150 308-200L269-200Q287-153 287-122Q287-95 276-66Z"  horiz-adv-x="570" vert-adv-y="1000"  />

      
      <glyph glyph-name="uni0137" unicode="&#x0137;" d="M87 0L87 700L129 700L129 303L218 303L380 500L435 500L254 285L254 283L452 0L399 0L218 264L129 264L129 0L87 0M225-66L273-66Q279-92 279-113Q279-150 257-200L218-200Q236-153 236-122Q236-95 225-66Z"  horiz-adv-x="473" vert-adv-y="1000"  />

      
      <glyph glyph-name="uni0138" unicode="&#x0138;" d="M87 0L87 500L129 500L129 287L215 287L388 500L445 500L254 270L254 268L442 0L387 0L215 250L129 250L129 0L87 0Z"  horiz-adv-x="471" vert-adv-y="1000"  />

      
      <glyph glyph-name="uni0139" unicode="&#x0139;" d="M107 0L107 700L150 700L150 40L484 40L484 0L107 0M106 750L173 861L229 861L150 750L106 750Z"  horiz-adv-x="508" vert-adv-y="1000"  />

      
      <glyph glyph-name="uni013A" unicode="&#x013A;" d="M87 101L87 700L129 700L129 114Q129 36 188 36Q197 36 203 37L203-2Q195-4 185-4Q171-4 157-0.50Q143 3 125.50 13Q108 23 97.50 45.50Q87 68 87 101M87 750L154 861L210 861L131 750L87 750Z"  horiz-adv-x="227" vert-adv-y="1000"  />

      
      <glyph glyph-name="uni013B" unicode="&#x013B;" d="M107 0L107 700L150 700L150 40L484 40L484 0L107 0M278-66L326-66Q332-92 332-113Q332-150 310-200L271-200Q289-153 289-122Q289-95 278-66Z"  horiz-adv-x="508" vert-adv-y="1000"  />

      
      <glyph glyph-name="uni013C" unicode="&#x013C;" d="M87 101L87 700L129 700L129 114Q129 36 188 36Q197 36 203 37L203-2Q195-4 185-4Q171-4 157-0.50Q143 3 125.50 13Q108 23 97.50 45.50Q87 68 87 101M116-66L164-66Q170-92 170-113Q170-150 148-200L109-200Q127-153 127-122Q127-95 116-66Z"  horiz-adv-x="227" vert-adv-y="1000"  />

      
      <glyph glyph-name="uni013D" unicode="&#x013D;" d="M107 0L107 700L150 700L150 40L484 40L484 0L107 0M247 700L295 700Q301 674 301 653Q301 616 279 566L240 566Q258 613 258 644Q258 671 247 700Z"  horiz-adv-x="508" vert-adv-y="1000"  />

      
      <glyph glyph-name="uni013E" unicode="&#x013E;" d="M87 101L87 700L129 700L129 114Q129 36 188 36Q197 36 203 37L203-2Q195-4 185-4Q171-4 157-0.50Q143 3 125.50 13Q108 23 97.50 45.50Q87 68 87 101M197 700L245 700Q251 674 251 653Q251 616 229 566L190 566Q208 613 208 644Q208 671 197 700Z"  horiz-adv-x="227" vert-adv-y="1000"  />

      
      <glyph glyph-name="uni013F" unicode="&#x013F;" d="M107 0L107 700L150 700L150 40L484 40L484 0L107 0M283 334L283 397L344 397L344 334L283 334Z"  horiz-adv-x="508" vert-adv-y="1000"  />

      
      <glyph glyph-name="uni0140" unicode="&#x0140;" d="M87 101L87 700L129 700L129 114Q129 36 188 36Q197 36 203 37L203-2Q195-4 185-4Q171-4 157-0.50Q143 3 125.50 13Q108 23 97.50 45.50Q87 68 87 101M194 334L194 397L255 397L255 334L194 334Z"  horiz-adv-x="233" vert-adv-y="1000"  />

      
      <glyph glyph-name="uni0141" unicode="&#x0141;" d="M113 0L113 370L48 333L48 380L113 417L113 700L156 700L156 442L271 509L271 461L156 395L156 40L490 40L490 0L113 0Z"  horiz-adv-x="514" vert-adv-y="1000"  />

      
      <glyph glyph-name="uni0142" unicode="&#x0142;" d="M15 333L15 380L104 431L104 700L146 700L146 456L238 509L238 461L146 408L146 114Q146 36 205 36L220 37L220-2Q211-4 202-4Q188-4 174-0.50Q160 3 142.50 13Q125 23 114.50 45.50Q104 68 104 101L104 384L15 333Z"  horiz-adv-x="251" vert-adv-y="1000"  />

      
      <glyph glyph-name="uni0143" unicode="&#x0143;" d="M107 0L107 700L147 700L546 151L603 63L605 63Q600 116 600 151L600 700L643 700L643 0L603 0L204 549L147 637L145 637Q150 584 150 549L150 0L107 0M352 750L419 861L475 861L396 750L352 750Z"  horiz-adv-x="750" vert-adv-y="1000"  />

      
      <glyph glyph-name="uni0144" unicode="&#x0144;" d="M87 0L87 500L129 500L129 412L125 371L127 371Q144 419 200 465.50Q256 512 339 512Q431 512 467.50 462.50Q504 413 504 317L504 0L462 0L462 302Q462 332 460 353.50Q458 375 451 398.50Q444 422 431 437Q418 452 394.50 461.50Q371 471 339 471Q252 471 190.50 407.50Q129 344 129 249L129 0L87 0M284 589L351 700L407 700L328 589L284 589Z"  horiz-adv-x="586" vert-adv-y="1000"  />

      
      <glyph glyph-name="uni0145" unicode="&#x0145;" d="M107 0L107 700L147 700L546 151L603 63L605 63Q600 116 600 151L600 700L643 700L643 0L603 0L204 549L147 637L145 637Q150 584 150 549L150 0L107 0M350-66L398-66Q404-92 404-113Q404-150 382-200L343-200Q361-153 361-122Q361-95 350-66Z"  horiz-adv-x="750" vert-adv-y="1000"  />

      
      <glyph glyph-name="uni0146" unicode="&#x0146;" d="M87 0L87 500L129 500L129 412L125 371L127 371Q144 419 200 465.50Q256 512 339 512Q431 512 467.50 462.50Q504 413 504 317L504 0L462 0L462 302Q462 332 460 353.50Q458 375 451 398.50Q444 422 431 437Q418 452 394.50 461.50Q371 471 339 471Q252 471 190.50 407.50Q129 344 129 249L129 0L87 0M271-66L319-66Q325-92 325-113Q325-150 303-200L264-200Q282-153 282-122Q282-95 271-66Z"  horiz-adv-x="586" vert-adv-y="1000"  />

      
      <glyph glyph-name="uni0147" unicode="&#x0147;" d="M107 0L107 700L147 700L546 151L603 63L605 63Q600 116 600 151L600 700L643 700L643 0L603 0L204 549L147 637L145 637Q150 584 150 549L150 0L107 0M349 750L269 861L318 861L374 781L376 781L432 861L481 861L401 750L349 750Z"  horiz-adv-x="750" vert-adv-y="1000"  />

      
      <glyph glyph-name="uni0148" unicode="&#x0148;" d="M87 0L87 500L129 500L129 412L125 371L127 371Q144 419 200 465.50Q256 512 339 512Q431 512 467.50 462.50Q504 413 504 317L504 0L462 0L462 302Q462 332 460 353.50Q458 375 451 398.50Q444 422 431 437Q418 452 394.50 461.50Q371 471 339 471Q252 471 190.50 407.50Q129 344 129 249L129 0L87 0M281 589L201 700L250 700L306 620L308 620L364 700L413 700L333 589L281 589Z"  horiz-adv-x="586" vert-adv-y="1000"  />

      
      <glyph glyph-name="uni0149" unicode="&#x0149;" d="M87 0L87 500L129 500L129 412L125 371L127 371Q144 419 200 465.50Q256 512 339 512Q431 512 467.50 462.50Q504 413 504 317L504 0L462 0L462 302Q462 332 460 353.50Q458 375 451 398.50Q444 422 431 437Q418 452 394.50 461.50Q371 471 339 471Q252 471 190.50 407.50Q129 344 129 249L129 0L87 0M31 700L79 700Q85 674 85 653Q85 616 63 566L24 566Q42 613 42 644Q42 671 31 700Z"  horiz-adv-x="586" vert-adv-y="1000"  />

      
      <glyph glyph-name="uni014A" unicode="&#x014A;" d="M107 0L107 700L147 700L546 151L603 63L605 63Q600 116 600 151L600 700L643 700L643-2Q643-106 588.50-155.50Q534-205 456-205L456-163Q516-163 558-123.50Q600-84 600 4L204 549L147 637L145 637Q150 584 150 549L150 0L107 0Z"  horiz-adv-x="750" vert-adv-y="1000"  />

      
      <glyph glyph-name="uni014B" unicode="&#x014B;" d="M87 0L87 500L129 500L129 417L127 376L129 376Q146 423 201 467.50Q256 512 339 512Q431 512 467.50 462.50Q504 413 504 317L504-25Q504-83 487-123Q470-163 442.50-180.50Q415-198 392-204Q369-210 345-210L320-208L320-169Q329-171 342-171Q361-171 378.50-166Q396-161 416.50-147.50Q437-134 449.50-102.50Q462-71 462-26L462 302Q462 332 460 353.50Q458 375 451 398.50Q444 422 431 437Q418 452 394.50 461.50Q371 471 339 471Q250 471 189.50 406Q129 341 129 249L129 0L87 0Z"  horiz-adv-x="586" vert-adv-y="1000"  />

      
      </font>
</defs>
</svg>
