<?xml version="1.0" standalone="no"?>
  <!DOCTYPE svg PUBLIC "-//W3C//DTD SVG 1.1//EN" "http://www.w3.org/Graphics/SVG/1.1/DTD/svg11.dtd" >
  <svg>
  <metadata>
  Created by font-carrier
  </metadata>
  <defs>
  <font id="MuseoSansCyrl-700" horiz-adv-x="1167" vert-adv-y="1167" >
    <font-face
      
      font-family="Museo Sans Cyrl 700"
      
      font-weight="400"
      
      font-stretch="normal"
      
      units-per-em="1000"
      
      ascent="940"
      
      descent="-260"
      
    />
      <missing-glyph />

      

      
      <glyph glyph-name="uni21" unicode="&#x21;" d="M88 205L78 710L209 710L199 205L88 205M82 0L82 119L205 119L205 0L82 0Z"  horiz-adv-x="288" vert-adv-y="1000"  />

      
      <glyph glyph-name="uni22" unicode="&#x22;" d="M230 514L230 723L324 723L324 514L230 514M69 514L69 723L164 723L164 514L69 514Z"  horiz-adv-x="393" vert-adv-y="1000"  />

      
      <glyph glyph-name="uni23" unicode="&#x23;" d="M126 0L158 187L39 187L55 278L174 278L199 418L81 418L96 510L214 510L249 710L351 710L316 510L452 510L487 710L589 710L554 510L675 510L659 418L539 418L514 278L633 278L618 187L499 187L466 0L364 0L397 187L260 187L228 0L126 0M276 278L412 278L437 418L300 418L276 278Z"  horiz-adv-x="715" vert-adv-y="1000"  />

      
      <glyph glyph-name="uni24" unicode="&#x24;" d="M53 85L122 182Q156 150 204.50 128.50Q253 107 299 107Q343 107 373 129.50Q403 152 403 193Q403 226 368 251.50Q333 277 283.50 297.50Q234 318 184.50 343Q135 368 100 412Q65 456 65 516Q65 593 117 648Q169 703 253 717L253 811L338 811L338 719Q442 711 514 646L458 541Q427 568 384.50 585.50Q342 603 302 603Q256 603 225 579Q194 555 194 518Q194 491 219 468.50Q244 446 281.50 431.50Q319 417 363 396Q407 375 444.50 352.50Q482 330 507 289.50Q532 249 532 196Q532 117 480 60Q428 3 338-9L338-101L253-101L253-9Q129 5 53 85Z"  horiz-adv-x="586" vert-adv-y="1000"  />

      
      <glyph glyph-name="uni25" unicode="&#x25;" d="M322 452Q322 452 298 429Q274 406 206 406Q138 406 90.50 452Q43 498 43 564Q43 629 90.50 675.50Q138 722 206 722Q273 722 321.50 675.50Q370 629 370 564Q370 498 322 452M68 0L613 710L730 710L185 0L68 0M159 517Q159 517 168.50 507.50Q178 498 206 498Q234 498 253.50 517Q273 536 273 564Q273 591 253.50 610.50Q234 630 206 630Q178 630 159 610.50Q140 591 140 564Q140 536 159 517M478.50 34Q478.50 34 454.75 57Q431 80 431 145Q431 210 478.50 256.50Q526 303 594 303Q661 303 709 256.50Q757 210 757 145Q757 80 709.50 34Q662-12 594-12Q526-12 478.50 34M528 146Q528 118 547 99Q566 80 594 80Q622 80 641.50 99Q661 118 661 146Q661 173 641.50 192.50Q622 212 594 212Q566 212 547 192.50Q528 173 528 146Z"  horiz-adv-x="800" vert-adv-y="1000"  />

      
      <glyph glyph-name="uni26" unicode="&#x26;" d="M51 201Q51 260 83.50 309.50Q116 359 171 378L171 380Q130 399 105.50 440Q81 481 81 535Q81 625 144.50 673.50Q208 722 306 722Q346 722 399 710L368 608Q347 614 321 614Q273 614 242.50 589Q212 564 212 519Q212 482 237 453.50Q262 425 319 425L433 425L433 517L560 517L560 425L652 425L652 313L560 313L560 229Q560 119 492 53.50Q424-12 304-12Q191-12 121 48.50Q51 109 51 201M183 209Q183 165 216.50 135.50Q250 106 304 106Q366 106 399.50 139Q433 172 433 236L433 313L313 313Q252 313 217.50 286.50Q183 260 183 209Z"  horiz-adv-x="684" vert-adv-y="1000"  />

      
      <glyph glyph-name="uni27" unicode="&#x27;" d="M69 514L69 723L165 723L165 514L69 514Z"  horiz-adv-x="235" vert-adv-y="1000"  />

      
      <glyph glyph-name="uni28" unicode="&#x28;" d="M167-95Q48 100 48 343Q48 553 167 741L274 741Q161 551 161 342Q161 116 274-95L167-95Z"  horiz-adv-x="308" vert-adv-y="1000"  />

      
      <glyph glyph-name="uni29" unicode="&#x29;" d="M34-95Q147 116 147 342Q147 551 34 741L141 741Q260 553 260 343Q260 100 141-95L34-95Z"  horiz-adv-x="308" vert-adv-y="1000"  />

      
      <glyph glyph-name="uni2a" unicode="&#x2a;" d="M178 321L86 387L170 487L170 489L44 520L78 628L199 579L190 710L305 710L295 579L417 628L452 521L325 489L325 487L409 388L317 321L248 431L246 431L178 321Z"  horiz-adv-x="495" vert-adv-y="1000"  />

      
      <glyph glyph-name="uni2b" unicode="&#x2b;" d="M25 236L25 335L242 335L242 572L345 572L345 335L561 335L561 236L345 236L345 0L242 0L242 236L25 236Z"  horiz-adv-x="586" vert-adv-y="1000"  />

      
      <glyph glyph-name="uni2c" unicode="&#x2c;" d="M25-105L93 129L219 129L122-105L25-105Z"  horiz-adv-x="282" vert-adv-y="1000"  />

      
      <glyph glyph-name="uni2d" unicode="&#x2d;" d="M66 230L66 341L366 341L366 230L66 230Z"  horiz-adv-x="432" vert-adv-y="1000"  />

      
      <glyph glyph-name="uni2e" unicode="&#x2e;" d="M66 0L66 128L193 128L193 0L66 0Z"  horiz-adv-x="259" vert-adv-y="1000"  />

      
      <glyph glyph-name="uni2f" unicode="&#x2f;" d="M33-42L288 746L397 746L142-42L33-42Z"  horiz-adv-x="430" vert-adv-y="1000"  />

      
      <glyph glyph-name="uni30" unicode="&#x30;" d="M435.50 16Q435.50 16 409.75 2Q384-12 314-12Q244-12 192.50 16Q141 44 112 96Q83 148 69.50 212Q56 276 56 356Q56 436 69.50 500Q83 564 112 615Q141 666 192 694Q243 722 314 722Q571 722 571 356Q571 276 557.50 212Q544 148 515.50 96Q487 44 435.50 16M189 356Q189 106 314 106Q439 106 439 356Q439 603 314 603Q189 603 189 356Z"  horiz-adv-x="628" vert-adv-y="1000"  />

      
      <glyph glyph-name="uni31" unicode="&#x31;" d="M56 0L56 111L211 111L211 505L212 553L210 553Q201 536 178 513L121 459L45 539L223 710L336 710L336 111L490 111L490 0L56 0Z"  horiz-adv-x="517" vert-adv-y="1000"  />

      
      <glyph glyph-name="uni32" unicode="&#x32;" d="M58 0Q52 34 52 63Q52 115 70.50 160Q89 205 118 237.50Q147 270 182.50 298Q218 326 253.50 350Q289 374 318 397Q347 420 365.50 446.50Q384 473 384 501Q384 546 353 573Q322 600 276 600Q237 600 203 576Q169 552 148 516L52 580Q86 642 146 682Q206 722 287 722Q384 722 451 665.50Q518 609 518 512Q518 466 500.50 425.50Q483 385 455 356Q427 327 392.50 301Q358 275 324 253Q290 231 261 209.50Q232 188 213.50 163Q195 138 194 111L529 111L529 0L58 0Z"  horiz-adv-x="583" vert-adv-y="1000"  />

      
      <glyph glyph-name="uni33" unicode="&#x33;" d="M38 83L104 182Q134 151 177.50 130.50Q221 110 266 110Q321 110 357 140Q393 170 393 216Q393 270 350.50 298Q308 326 241 326L192 326L164 392L294 546Q306 561 318.50 574.50Q331 588 338 594L345 600L345 602Q323 599 282 599L70 599L70 710L503 710L503 629L330 428Q410 417 466.50 362.50Q523 308 523 221Q523 125 455 56.50Q387-12 273-12Q208-12 145.50 12.50Q83 37 38 83Z"  horiz-adv-x="573" vert-adv-y="1000"  />

      
      <glyph glyph-name="uni34" unicode="&#x34;" d="M30 183L30 262L337 710L489 710L489 290L581 290L581 183L489 183L489 0L362 0L362 183L30 183M166 290L362 290L362 510L367 584L365 584Q349 546 330 519L166 292L166 290Z"  horiz-adv-x="619" vert-adv-y="1000"  />

      
      <glyph glyph-name="uni35" unicode="&#x35;" d="M44 84L111 181Q176 110 262 110Q316 110 355.50 143.50Q395 177 395 231Q395 286 355 320Q315 354 253 354Q194 354 143 324L71 350L104 710L478 710L478 599L216 599L205 482L200 449L202 449Q232 465 278 465Q392 465 460 398Q528 331 528 232Q528 127 455 57.50Q382-12 272-12Q207-12 147 13Q87 38 44 84Z"  horiz-adv-x="570" vert-adv-y="1000"  />

      
      <glyph glyph-name="uni36" unicode="&#x36;" d="M52 324Q52 381 64.50 437Q77 493 104 544.50Q131 596 168.50 635.50Q206 675 260.50 698.50Q315 722 379 722Q462 722 525 692L487 581Q447 603 386 603Q308 603 260 548Q212 493 198 413L200 413Q218 435 256 449Q294 463 333 463Q435 463 497.50 394Q560 325 560 225Q560 125 495 56.50Q430-12 327-12Q211-12 131.50 79Q52 170 52 324M328 106Q375 106 404 140Q433 174 433 225Q433 282 398.50 319.50Q364 357 303 357Q254 357 220 335.50Q186 314 186 277Q186 215 228 160.50Q270 106 328 106Z"  horiz-adv-x="604" vert-adv-y="1000"  />

      
      <glyph glyph-name="uni37" unicode="&#x37;" d="M81 0L347 534Q357 554 367.50 570Q378 586 383 592L388 599L388 601Q377 599 341 599L38 599L38 710L526 710L526 620L215 0L81 0Z"  horiz-adv-x="547" vert-adv-y="1000"  />

      
      <glyph glyph-name="uni38" unicode="&#x38;" d="M50 205Q50 240 62 272Q74 304 94 327.50Q114 351 128.50 364.50Q143 378 158 389Q84 446 84 527Q84 608 143 665Q202 722 312 722Q413 722 477.50 669Q542 616 542 526Q542 436 463 349Q554 291 554 199Q554 113 485.50 50.50Q417-12 303-12Q191-12 120.50 50.50Q50 113 50 205M367 397Q416 457 416 516Q416 558 386.50 582.50Q357 607 309 607Q263 607 237 584Q211 561 211 525Q211 514 213.50 504.50Q216 495 222.50 485.50Q229 476 233.50 469.50Q238 463 250.50 455Q263 447 269.50 442.50Q276 438 292.50 430Q309 422 315.50 419.50Q322 417 342 408Q362 399 367 397M182 215Q182 167 218 134.50Q254 102 303 102Q354 102 388.50 130.50Q423 159 423 204Q423 223 414.50 238Q406 253 384.50 267.50Q363 282 348 290Q333 298 298 313Q263 328 249 335Q182 278 182 215Z"  horiz-adv-x="610" vert-adv-y="1000"  />

      
      <glyph glyph-name="uni39" unicode="&#x39;" d="M79 18L117 129Q165 106 217 106Q295 106 343 160.50Q391 215 406 296L404 296Q386 274 348 260Q310 246 271 246Q169 246 106 315.50Q43 385 43 484Q43 584 108 653Q173 722 277 722Q393 722 472 631Q551 540 551 385Q551 328 538.50 272Q526 216 499 164.50Q472 113 434.50 74Q397 35 342.50 11.50Q288-12 224-12Q140-12 79 18M301 352Q349 352 383.50 374.50Q418 397 418 429Q418 496 375.50 549.50Q333 603 278 603Q229 603 200 569.50Q171 536 171 484Q171 427 205.50 389.50Q240 352 301 352Z"  horiz-adv-x="604" vert-adv-y="1000"  />

      
      <glyph glyph-name="uni3a" unicode="&#x3a;" d="M66 383L66 510L192 510L192 383L66 383M66 0L66 127L192 127L192 0L66 0Z"  horiz-adv-x="258" vert-adv-y="1000"  />

      
      <glyph glyph-name="uni3b" unicode="&#x3b;" d="M100 383L100 510L223 510L223 383L100 383M39-105L97 129L223 129L136-105L39-105Z"  horiz-adv-x="295" vert-adv-y="1000"  />

      
      <glyph glyph-name="uni3c" unicode="&#x3c;" d="M39 245L39 327L520 541L520 430L173 287L173 285L520 142L520 31L39 245Z"  horiz-adv-x="586" vert-adv-y="1000"  />

      
      <glyph glyph-name="uni3d" unicode="&#x3d;" d="M49 339L49 437L537 437L537 339L49 339M49 134L49 232L537 232L537 134L49 134Z"  horiz-adv-x="586" vert-adv-y="1000"  />

      
      <glyph glyph-name="uni3e" unicode="&#x3e;" d="M65 31L65 142L412 285L412 287L65 430L65 541L546 327L546 245L65 31Z"  horiz-adv-x="586" vert-adv-y="1000"  />

      
      <glyph glyph-name="uni3f" unicode="&#x3f;" d="M145 205L145 253Q145 293 162 326Q179 359 203 381Q227 403 251 423.50Q275 444 292 469.50Q309 495 309 524Q309 559 281 583Q253 607 212 607Q157 607 106 565L35 652Q111 724 223 724Q312 724 377 672.50Q442 621 442 536Q442 490 424 453Q406 416 380 392Q354 368 328.50 346.50Q303 325 285 299Q267 273 267 244L267 205L145 205M144 0L144 119L267 119L267 0L144 0Z"  horiz-adv-x="483" vert-adv-y="1000"  />

      
      <glyph glyph-name="uni40" unicode="&#x40;" d="M52 240Q52 396 160.50 504.50Q269 613 428 613Q571 613 637 552Q703 491 703 395L703 145L776 145L776 54L499 54Q402 54 343 109Q284 164 284 240Q284 315 342.50 369Q401 423 499 423L584 423Q583 462 540.50 486.50Q498 511 432 511Q325 511 251 430Q177 349 177 240Q177 127 251.50 49.50Q326-28 449-28L449-127Q273-127 162.50-22Q52 83 52 240M438 312.50Q438 312.50 424.50 298.25Q411 284 411 243Q411 202 437.50 173.50Q464 145 507 145L584 145L584 341L509 341Q465 341 438 312.50Z"  horiz-adv-x="815" vert-adv-y="1000"  />

      
      <glyph glyph-name="uni41" unicode="&#x41;" d="M8 0L257 710L393 710L642 0L510 0L449 182L200 182L140 0L8 0M232 287L417 287L354 477L326 587L324 587Q308 517 296 477L232 287Z"  horiz-adv-x="650" vert-adv-y="1000"  />

      
      <glyph glyph-name="uni42" unicode="&#x42;" d="M86 0L86 710L339 710Q438 710 498.50 661.50Q559 613 559 527Q559 477 536 437Q513 397 473 375L473 373Q529 357 558.50 310Q588 263 588 206Q588 105 518 52.50Q448 0 343 0L86 0M215 420L340 420Q381 420 404.50 445.50Q428 471 428 511Q428 550 404.50 574.50Q381 599 338 599L215 599L215 420M215 111L353 111Q401 111 428.50 139.50Q456 168 456 214Q456 259 428.50 287.50Q401 316 353 316L215 316L215 111Z"  horiz-adv-x="633" vert-adv-y="1000"  />

      
      <glyph glyph-name="uni43" unicode="&#x43;" d="M45 358Q45 514 148 618Q251 722 410 722Q572 722 672 625L610 529Q571 562 518.50 583Q466 604 416 604Q304 604 241 534Q178 464 178 360Q178 255 242 180.50Q306 106 417 106Q531 106 623 196L691 103Q578-12 412-12Q247-12 146 93Q45 198 45 358Z"  horiz-adv-x="716" vert-adv-y="1000"  />

      
      <glyph glyph-name="uni44" unicode="&#x44;" d="M86 0L86 710L328 710Q494 710 592 616Q690 522 690 356Q690 190 592 95Q494 0 328 0L86 0M215 111L321 111Q431 111 494 174.50Q557 238 557 356Q557 472 493.50 535.50Q430 599 321 599L215 599L215 111Z"  horiz-adv-x="737" vert-adv-y="1000"  />

      
      <glyph glyph-name="uni45" unicode="&#x45;" d="M86 0L86 710L511 710L511 599L215 599L215 413L454 413L454 302L215 302L215 111L527 111L527 0L86 0Z"  horiz-adv-x="568" vert-adv-y="1000"  />

      
      <glyph glyph-name="uni46" unicode="&#x46;" d="M86 0L86 710L494 710L494 599L215 599L215 398L450 398L450 287L215 287L215 0L86 0Z"  horiz-adv-x="523" vert-adv-y="1000"  />

      
      <glyph glyph-name="uni47" unicode="&#x47;" d="M45 356Q45 511 149.50 616.50Q254 722 411 722Q571 722 675 632L611 536Q578 566 525 585Q472 604 422 604Q307 604 242.50 534Q178 464 178 360Q178 247 246 176.50Q314 106 416 106Q517 106 594 180L594 263L485 263L485 374L710 374L710 0L600 0L600 34L601 64L599 64Q564 30 508.50 9Q453-12 393-12Q248-12 146.50 90.50Q45 193 45 356Z"  horiz-adv-x="766" vert-adv-y="1000"  />

      
      <glyph glyph-name="uni48" unicode="&#x48;" d="M86 0L86 710L215 710L215 409L540 409L540 710L668 710L668 0L540 0L540 298L215 298L215 0L86 0Z"  horiz-adv-x="754" vert-adv-y="1000"  />

      
      <glyph glyph-name="uni49" unicode="&#x49;" d="M86 0L86 710L215 710L215 0L86 0Z"  horiz-adv-x="301" vert-adv-y="1000"  />

      
      <glyph glyph-name="uni4a" unicode="&#x4a;" d="M24 210L24 251L152 251L152 218Q152 170 175 138Q198 106 245 106Q286 106 312 132Q338 158 338 212L338 599L154 599L154 710L466 710L466 210Q466 101 400.50 44.50Q335-12 245-12Q154-12 89 45Q24 102 24 210Z"  horiz-adv-x="546" vert-adv-y="1000"  />

      
      <glyph glyph-name="uni4b" unicode="&#x4b;" d="M86 0L86 710L215 710L215 421L307 421L474 710L614 710L413 372L413 370L626 0L480 0L307 310L215 310L215 0L86 0Z"  horiz-adv-x="638" vert-adv-y="1000"  />

      
      <glyph glyph-name="uni4c" unicode="&#x4c;" d="M86 0L86 710L215 710L215 111L522 111L522 0L86 0Z"  horiz-adv-x="536" vert-adv-y="1000"  />

      
      <glyph glyph-name="uni4d" unicode="&#x4d;" d="M59 0L117 710L254 710L394 359L429 255L431 255Q450 317 466 359L606 710L743 710L801 0L672 0L643 397Q641 418 641 445.50Q641 473 642 490L642 507L640 507Q617 438 601 397L486 122L374 122L259 397L220 508L218 508Q221 444 217 397L188 0L59 0Z"  horiz-adv-x="860" vert-adv-y="1000"  />

      
      <glyph glyph-name="uni4e" unicode="&#x4e;" d="M86 0L86 710L215 710L484 300Q496 281 510.50 253.50Q525 226 534 208L543 190L545 190Q538 258 538 300L538 710L666 710L666 0L538 0L269 409Q257 428 242.50 455.50Q228 483 219 501L210 519L208 519Q215 451 215 409L215 0L86 0Z"  horiz-adv-x="753" vert-adv-y="1000"  />

      
      <glyph glyph-name="uni4f" unicode="&#x4f;" d="M44 360Q44 514 147.50 618Q251 722 411 722Q571 722 674.50 618Q778 514 778 360Q778 202 674.50 95Q571-12 411-12Q251-12 147.50 95Q44 202 44 360M177 360Q177 251 243.50 178.50Q310 106 411 106Q512 106 578.50 178.50Q645 251 645 360Q645 464 578.50 534Q512 604 411 604Q310 604 243.50 534Q177 464 177 360Z"  horiz-adv-x="822" vert-adv-y="1000"  />

      
      <glyph glyph-name="uni50" unicode="&#x50;" d="M86 0L86 710L360 710Q460 710 523 646Q586 582 586 479Q586 376 523 310.50Q460 245 360 245L215 245L215 0L86 0M215 357L336 357Q392 357 423.50 390Q455 423 455 479Q455 534 423.50 566.50Q392 599 338 599L215 599L215 357Z"  horiz-adv-x="615" vert-adv-y="1000"  />

      
      <glyph glyph-name="uni51" unicode="&#x51;" d="M44 359Q44 513 148 617.50Q252 722 411 722Q571 722 674.50 618Q778 514 778 359Q778 235 700 134L780 62L706-20L628 58Q535-12 411-12Q252-12 148 95Q44 202 44 359M177 359Q177 251 244 178.50Q311 106 411 106Q483 106 535 144L456 218L529 299L606 222Q645 283 645 359Q645 464 578 534Q511 604 411 604Q311 604 244 534Q177 464 177 359Z"  horiz-adv-x="822" vert-adv-y="1000"  />

      
      <glyph glyph-name="uni52" unicode="&#x52;" d="M86 0L86 710L320 710Q410 710 454 691Q510 668 542 618Q574 568 574 497Q574 432 542 378.50Q510 325 455 303L455 301Q464 290 478 264L624 0L479 0L339 265L215 265L215 0L86 0M215 377L331 377Q383 377 413 407.50Q443 438 443 490Q443 564 387 587Q360 599 309 599L215 599L215 377Z"  horiz-adv-x="640" vert-adv-y="1000"  />

      
      <glyph glyph-name="uni53" unicode="&#x53;" d="M35 85L105 182Q140 151 187.50 129Q235 107 281 107Q329 107 357 129.50Q385 152 385 188Q385 225 351 252Q317 279 268.50 299Q220 319 171 343Q122 367 88 411Q54 455 54 516Q54 608 122.50 665Q191 722 296 722Q421 722 504 646L447 541Q417 568 374.50 585.50Q332 603 291 603Q242 603 212.50 581Q183 559 183 522Q183 486 217 460Q251 434 299.50 415Q348 396 397 372.50Q446 349 480 305Q514 261 514 198Q514 108 451 48Q388-12 278-12Q210-12 146 13Q82 38 35 85Z"  horiz-adv-x="557" vert-adv-y="1000"  />

      
      <glyph glyph-name="uni54" unicode="&#x54;" d="M247 0L247 599L14 599L14 710L608 710L608 599L375 599L375 0L247 0Z"  horiz-adv-x="622" vert-adv-y="1000"  />

      
      <glyph glyph-name="uni55" unicode="&#x55;" d="M78 255L78 710L207 710L207 256Q207 185 249.50 145.50Q292 106 364 106Q436 106 478.50 145.50Q521 185 521 256L521 710L650 710L650 255Q650 136 571.50 62Q493-12 365-12Q236-12 157 62Q78 136 78 255Z"  horiz-adv-x="728" vert-adv-y="1000"  />

      
      <glyph glyph-name="uni56" unicode="&#x56;" d="M261 0L5 710L144 710L300 247L327 143L329 143Q343 206 356 247L514 710L651 710L395 0L261 0Z"  horiz-adv-x="656" vert-adv-y="1000"  />

      
      <glyph glyph-name="uni57" unicode="&#x57;" d="M200 0L23 710L158 710L268 219L280 144L282 144Q286 178 297 219L424 710L532 710L658 219L673 144L675 144Q677 179 686 219L804 710L937 710L753 0L608 0L497 420L479 513L476 513Q469 466 457 420L347 0L200 0Z"  horiz-adv-x="956" vert-adv-y="1000"  />

      
      <glyph glyph-name="uni58" unicode="&#x58;" d="M13 0L233 360L21 710L168 710L266 536L310 449L312 449Q332 494 356 536L455 710L602 710L389 360L610 0L466 0L355 191L311 275L309 275Q289 232 266 191L156 0L13 0Z"  horiz-adv-x="622" vert-adv-y="1000"  />

      
      <glyph glyph-name="uni59" unicode="&#x59;" d="M239 0L239 297L2 710L148 710L259 501L302 406L304 406Q325 457 347 501L457 710L603 710L367 297L367 0L239 0Z"  horiz-adv-x="606" vert-adv-y="1000"  />

      
      <glyph glyph-name="uni5a" unicode="&#x5a;" d="M36 0L36 83L351 535Q363 553 376 569Q389 585 396 592L403 599L403 601Q383 599 350 599L52 599L52 710L565 710L565 628L250 175Q238 157 225 141Q212 125 205 118L198 111L198 109Q218 111 251 111L570 111L570 0L36 0Z"  horiz-adv-x="610" vert-adv-y="1000"  />

      
      <glyph glyph-name="uni5b" unicode="&#x5b;" d="M80-95L80 741L277 741L277 649L188 649L188-3L277-3L277-95L80-95Z"  horiz-adv-x="321" vert-adv-y="1000"  />

      
      <glyph glyph-name="uni5c" unicode="&#x5c;" d="M288-42L33 746L142 746L397-42L288-42Z"  horiz-adv-x="430" vert-adv-y="1000"  />

      
      <glyph glyph-name="uni5d" unicode="&#x5d;" d="M44-3L133-3L133 649L44 649L44 741L241 741L241-95L44-95L44-3Z"  horiz-adv-x="321" vert-adv-y="1000"  />

      
      <glyph glyph-name="uni5e" unicode="&#x5e;" d="M65 245L266 710L346 710L547 245L437 245L306 576L175 245L65 245Z"  horiz-adv-x="619" vert-adv-y="1000"  />

      
      <glyph glyph-name="uni5f" unicode="&#x5f;" d="M22 0L583 0L583-98L22-98L22 0Z"  horiz-adv-x="605" vert-adv-y="1000"  />

      
      <glyph glyph-name="uni60" unicode="&#x60;" d="M247 757L143 893L274 893L350 757L247 757Z"  horiz-adv-x="493" vert-adv-y="1000"  />

      
      <glyph glyph-name="uni61" unicode="&#x61;" d="M29 141Q29 195 58.50 233Q88 271 136.50 288.50Q185 306 230.50 313Q276 320 326 320L348 320L348 327Q348 417 252 417Q182 417 110 368L63 459Q96 485 152 503.50Q208 522 263 522Q363 522 419 468.50Q475 415 475 319L475 0L357 0L357 43L360 80L358 80Q334 39 291 13.50Q248-12 197-12Q126-12 77.50 30.50Q29 73 29 141M155 152Q155 125 175.50 105Q196 85 232 85Q283 85 316 127Q349 169 349 219L349 233L327 233Q155 233 155 152Z"  horiz-adv-x="537" vert-adv-y="1000"  />

      
      <glyph glyph-name="uni62" unicode="&#x62;" d="M68 0L68 710L195 710L195 489L192 446L194 446Q216 480 258.50 501Q301 522 348 522Q451 522 512.50 448Q574 374 574 255Q574 135 508.50 61.50Q443-12 340-12Q294-12 252 9Q210 30 186 67L184 67Q186 53 186 33L186 0L68 0M191 252Q191 188 224.50 141.50Q258 95 318 95Q373 95 409.50 137.50Q446 180 446 253Q446 325 411 369Q376 413 320 413Q265 413 228 372.50Q191 332 191 252Z"  horiz-adv-x="614" vert-adv-y="1000"  />

      
      <glyph glyph-name="uni63" unicode="&#x63;" d="M37 255Q37 367 113.50 444.50Q190 522 314 522Q369 522 422 503Q475 484 510 446L453 359Q398 414 321 414Q252 414 209 368.50Q166 323 166 256Q166 189 210 142.50Q254 96 325 96Q408 96 475 161L524 71Q488 33 431.50 10.50Q375-12 314-12Q190-12 113.50 64.50Q37 141 37 255Z"  horiz-adv-x="548" vert-adv-y="1000"  />

      
      <glyph glyph-name="uni64" unicode="&#x64;" d="M39 255Q39 375 103.50 448.50Q168 522 270 522Q371 522 419 455L421 455Q419 468 419 485L419 710L545 710L545 0L426 0L426 44L428 76L426 76Q403 36 360.50 12Q318-12 265-12Q163-12 101 62Q39 136 39 255M167 255Q167 183 202 139Q237 95 294 95Q348 95 385 135.50Q422 176 422 256Q422 320 389 366.50Q356 413 295 413Q241 413 204 370.50Q167 328 167 255Z"  horiz-adv-x="614" vert-adv-y="1000"  />

      
      <glyph glyph-name="uni65" unicode="&#x65;" d="M37 255Q37 373 109.50 447.50Q182 522 297 522Q403 522 463 453.50Q523 385 523 280Q523 263 519 231L168 231Q174 167 217 131.50Q260 96 321 96Q397 96 467 152L517 61Q479 27 423.50 7.50Q368-12 312-12Q189-12 113 65.50Q37 143 37 255M171 318L396 318Q395 368 366.50 397Q338 426 294 426Q246 426 213 396.50Q180 367 171 318Z"  horiz-adv-x="561" vert-adv-y="1000"  />

      
      <glyph glyph-name="uni66" unicode="&#x66;" d="M97 0L97 402L34 402L34 503L97 503L97 525Q97 573 112.50 608.50Q128 644 150 663.50Q172 683 202.50 695Q233 707 257 710.50Q281 714 306 714Q334 714 349 711L349 603Q341 605 323 605Q224 605 224 522L224 503L334 503L334 402L224 402L224 0L97 0Z"  horiz-adv-x="356" vert-adv-y="1000"  />

      
      <glyph glyph-name="uni67" unicode="&#x67;" d="M126-69Q194-102 267-102Q331-102 371-72Q411-42 411 22L411 54L413 81L411 81Q364 10 268 10Q162 10 101 84Q40 158 40 268Q40 378 99.50 450Q159 522 265 522Q369 522 417 455L420 455Q418 461 418 469L418 510L538 510L538 31Q538-32 515-80Q492-128 453-155.50Q414-183 367.50-196.50Q321-210 269-210Q172-210 87-166L126-69M168 272Q168 203 201.50 160Q235 117 296 117Q347 117 380.50 152Q414 187 414 267Q414 414 288 414Q231 414 199.50 375.50Q168 337 168 272Z"  horiz-adv-x="606" vert-adv-y="1000"  />

      
      <glyph glyph-name="uni68" unicode="&#x68;" d="M68 0L68 710L195 710L195 462L192 419L194 419Q215 460 262.50 491Q310 522 371 522Q549 522 549 328L549 0L422 0L422 302Q422 353 404.50 379.50Q387 406 342 406Q276 406 235.50 358.50Q195 311 195 237L195 0L68 0Z"  horiz-adv-x="612" vert-adv-y="1000"  />

      
      <glyph glyph-name="uni69" unicode="&#x69;" d="M68 597L68 710L195 710L195 597L68 597M68 0L68 510L195 510L195 0L68 0Z"  horiz-adv-x="263" vert-adv-y="1000"  />

      
      <glyph glyph-name="uni6a" unicode="&#x6a;" d="M68 597L68 710L195 710L195 597L68 597M68-5L68 510L195 510L195-15Q195-64 179-100.50Q163-137 140.50-156.50Q118-176 87-188Q56-200 31.50-203.50Q7-207-18-207Q-36-207-56-204L-56-97Q-44-99-34-99Q-17-99-2-95.50Q13-92 30-83.50Q47-75 57.50-54.50Q68-34 68-5Z"  horiz-adv-x="263" vert-adv-y="1000"  />

      
      <glyph glyph-name="uni6b" unicode="&#x6b;" d="M68 0L68 710L195 710L195 330L258 330L381 510L522 510L361 282L361 280L542 0L396 0L261 223L195 223L195 0L68 0Z"  horiz-adv-x="549" vert-adv-y="1000"  />

      
      <glyph glyph-name="uni6c" unicode="&#x6c;" d="M68 159L68 710L194 710L194 178Q194 138 206.50 123Q219 108 246 108Q258 108 265 109L265-2Q238-5 225-5Q194-5 170 0.50Q146 6 121 21.50Q96 37 82 72Q68 107 68 159Z"  horiz-adv-x="289" vert-adv-y="1000"  />

      
      <glyph glyph-name="uni6d" unicode="&#x6d;" d="M68 0L68 510L190 510L190 450L188 414L190 414Q210 456 255.50 489Q301 522 357 522Q473 522 505 417L507 417Q530 460 577 491Q624 522 681 522Q848 522 848 328L848 0L722 0L722 304Q722 353 707 379.50Q692 406 652 406Q590 406 556 353.50Q522 301 522 229L522 0L395 0L395 304Q395 353 381 379.50Q367 406 326 406Q264 406 229.50 352.50Q195 299 195 229L195 0L68 0Z"  horiz-adv-x="912" vert-adv-y="1000"  />

      
      <glyph glyph-name="uni6e" unicode="&#x6e;" d="M68 0L68 510L190 510L190 450L188 414L190 414Q210 455 256 488.50Q302 522 371 522Q549 522 549 328L549 0L422 0L422 302Q422 353 404.50 379.50Q387 406 342 406Q276 406 235.50 358Q195 310 195 239L195 0L68 0Z"  horiz-adv-x="612" vert-adv-y="1000"  />

      
      <glyph glyph-name="uni6f" unicode="&#x6f;" d="M118 63.50Q118 63.50 77.50 101.25Q37 139 37 255Q37 371 118 446.50Q199 522 316 522Q434 522 515.50 446.50Q597 371 597 255Q597 139 516 63.50Q435-12 317-12Q199-12 118 63.50M166 255Q166 185 209.50 140.50Q253 96 317 96Q381 96 425 140.50Q469 185 469 255Q469 324 424.50 369Q380 414 317 414Q254 414 210 369Q166 324 166 255Z"  horiz-adv-x="634" vert-adv-y="1000"  />

      
      <glyph glyph-name="uni70" unicode="&#x70;" d="M68-200L68 510L184 510L184 472L182 436L184 436Q209 477 252.50 499.50Q296 522 348 522Q451 522 512.50 448Q574 374 574 255Q574 135 508.50 61.50Q443-12 341-12Q250-12 194 60L192 60Q195 42 195 16L195-200L68-200M191 252Q191 188 225 141.50Q259 95 318 95Q373 95 409.50 137.50Q446 180 446 253Q446 325 411 369Q376 413 320 413Q265 413 228 372.50Q191 332 191 252Z"  horiz-adv-x="614" vert-adv-y="1000"  />

      
      <glyph glyph-name="uni71" unicode="&#x71;" d="M39 255Q39 375 103.50 448.50Q168 522 270 522Q317 522 359 502.50Q401 483 426 447L428 447Q426 460 426 479L426 510L545 510L545-200L419-200L419 21L421 65L419 65Q396 31 355 9.50Q314-12 265-12Q163-12 101 62Q39 136 39 255M167 255Q167 183 202 139Q237 95 294 95Q348 95 385 135.50Q422 176 422 256Q422 320 389 366.50Q356 413 295 413Q241 413 204 370.50Q167 328 167 255Z"  horiz-adv-x="614" vert-adv-y="1000"  />

      
      <glyph glyph-name="uni72" unicode="&#x72;" d="M68 0L68 510L190 510L190 420L188 385L190 385Q208 441 252 479Q296 517 352 517Q360 517 376 515L376 390Q366 392 345 392Q271 392 233 338Q195 284 195 206L195 0L68 0Z"  horiz-adv-x="396" vert-adv-y="1000"  />

      
      <glyph glyph-name="uni73" unicode="&#x73;" d="M27 63L84 147Q145 91 229 91Q263 91 281.50 104.50Q300 118 300 142Q300 164 274 180Q248 196 211 209Q174 222 136.50 239.50Q99 257 73 290Q47 323 47 369Q47 441 102.50 481.50Q158 522 242 522Q348 522 414 464L367 375Q345 394 308.50 406.50Q272 419 238 419Q167 419 167 370Q167 348 193 332Q219 316 256.50 303Q294 290 331 273.50Q368 257 394 224Q420 191 420 145Q420 77 367 32.50Q314-12 227-12Q105-12 27 63Z"  horiz-adv-x="457" vert-adv-y="1000"  />

      
      <glyph glyph-name="uni74" unicode="&#x74;" d="M93 187L93 402L27 402L27 503L96 503L96 649L220 649L220 503L336 503L336 402L220 402L220 203Q220 148 251.50 127.50Q283 107 321 107Q334 107 344 109L344-2Q314-5 305-5Q279-5 255-1.50Q231 2 200 14Q169 26 146.50 45.50Q124 65 108.50 101.50Q93 138 93 187Z"  horiz-adv-x="373" vert-adv-y="1000"  />

      
      <glyph glyph-name="uni75" unicode="&#x75;" d="M63 182L63 510L190 510L190 208Q190 157 207.50 130.50Q225 104 269 104Q335 104 373.50 154Q412 204 412 276L412 510L538 510L538 0L416 0L416 60L419 95L417 95Q397 52 349 20Q301-12 240-12Q63-12 63 182Z"  horiz-adv-x="607" vert-adv-y="1000"  />

      
      <glyph glyph-name="uni76" unicode="&#x76;" d="M198 0L13 510L147 510L253 194L271 117L273 117Q282 164 291 194L397 510L531 510L348 0L198 0Z"  horiz-adv-x="545" vert-adv-y="1000"  />

      
      <glyph glyph-name="uni77" unicode="&#x77;" d="M174 0L19 510L153 510L242 175L252 121L254 121Q259 148 266 175L360 509L473 509L567 175L578 121L580 121Q583 148 591 175L680 510L812 510L657 0L516 0L430 291L417 346L415 346Q410 318 403 291L316 0L174 0Z"  horiz-adv-x="831" vert-adv-y="1000"  />

      
      <glyph glyph-name="uni78" unicode="&#x78;" d="M15 0L183 258L19 510L163 510L242 371L258 339L260 339Q270 358 277 371L356 510L500 510L336 258L505 0L363 0L275 148L260 175L258 175Q251 159 244 148L156 0L15 0Z"  horiz-adv-x="519" vert-adv-y="1000"  />

      
      <glyph glyph-name="uni79" unicode="&#x79;" d="M55-82Q83-103 111-103Q172-103 200-37L219 8L4 510L147 510L254 216L273 147L275 147Q284 187 292 214L392 510L530 510L303-77Q278-144 228.50-177Q179-210 119-210Q92-210 65.50-202Q39-194 26-186L13-177L55-82Z"  horiz-adv-x="545" vert-adv-y="1000"  />

      
      <glyph glyph-name="uni7a" unicode="&#x7a;" d="M35 0L35 68L265 355Q275 368 286 379.50Q297 391 302 396L308 402L308 404Q293 402 260 402L45 402L45 510L479 510L479 441L250 154Q240 141 229 129.50Q218 118 212 112L206 107L206 105Q221 108 254 108L486 108L486 0L35 0Z"  horiz-adv-x="524" vert-adv-y="1000"  />

      
      <glyph glyph-name="uni7b" unicode="&#x7b;" d="M122 71L122 168Q122 211 100.50 238.50Q79 266 37 272L37 383Q77 389 99.50 416.50Q122 444 122 489L122 575Q122 618 135.50 650.50Q149 683 167.50 700.50Q186 718 212.50 728Q239 738 258.50 741Q278 744 299 744L330 743L330 649Q322 650 312 650Q299 650 287.50 647Q276 644 262 636Q248 628 239.50 610Q231 592 231 565L231 456Q231 411 208.50 377Q186 343 148 329L148 327Q231 296 231 201L231 81Q231-4 312-4L330-3L330-97Q317-99 299-99Q278-99 258.50-96Q239-93 212.50-83Q186-73 167.50-55.50Q149-38 135.50-5.50Q122 27 122 71Z"  horiz-adv-x="371" vert-adv-y="1000"  />

      
      <glyph glyph-name="uni7c" unicode="&#x7c;" d="M78-161L78 796L186 796L186-161L78-161Z"  horiz-adv-x="264" vert-adv-y="1000"  />

      
      <glyph glyph-name="uni7d" unicode="&#x7d;" d="M41-3Q48-4 59-4Q140-4 140 81L140 201Q140 245 161.50 280Q183 315 222 327L222 329Q188 341 164 375.50Q140 410 140 456L140 565Q140 592 131.50 610Q123 628 109 636Q95 644 83.50 647Q72 650 59 650L41 649L41 743Q53 744 72 744Q99 744 124 738.50Q149 733 180 717Q211 701 229.50 664.50Q248 628 248 575L248 489Q248 447 270 417.50Q292 388 333 383L333 272Q294 268 271 239Q248 210 248 168L248 71Q248 27 234.50-5.50Q221-38 202.50-55Q184-72 158-82.50Q132-93 112.50-96Q93-99 72-99L41-97L41-3Z"  horiz-adv-x="371" vert-adv-y="1000"  />

      
      <glyph glyph-name="uni7e" unicode="&#x7e;" d="M62 199Q62 381 215 381Q249 381 277 367Q305 353 320.50 335.50Q336 318 356.50 304Q377 290 399 290Q431 290 446 315Q461 340 461 377L562 377Q562 286 522.50 240.50Q483 195 409 195Q375 195 347.50 209Q320 223 304.50 240Q289 257 267.50 271Q246 285 224 285Q194 285 178.50 260.50Q163 236 163 199L62 199Z"  horiz-adv-x="621" vert-adv-y="1000"  />

      
      <glyph glyph-name="unia1" unicode="&#xa1;" d="M189 304L199-201L68-201L78 304L189 304M195 509L195 390L72 390L72 509L195 509Z"  horiz-adv-x="268" vert-adv-y="1000"  />

      
      <glyph glyph-name="unia2" unicode="&#xa2;" d="M261-12L261 74Q166 90 107.50 168Q49 246 49 355Q49 464 107.50 542.50Q166 621 261 637L261 721L347 721L347 637Q413 625 463 582Q513 539 537 475L423 431Q387 520 307 520Q249 520 213 473.50Q177 427 177 355Q177 280 212 235Q247 190 307 190Q387 190 423 279L537 235Q512 174 463.50 128Q415 82 347 74L347-12L261-12Z"  horiz-adv-x="586" vert-adv-y="1000"  />

      
      <glyph glyph-name="unia3" unicode="&#xa3;" d="M47 0L47 111L105 111L105 311L62 311L62 398L105 398L105 519Q105 607 169.50 664.50Q234 722 333 722Q434 722 511 650L438 562Q393 605 336 605Q292 605 264 579.50Q236 554 236 515L236 398L413 398L413 311L236 311L236 111L548 111L548 0L47 0Z"  horiz-adv-x="586" vert-adv-y="1000"  />

      
      <glyph glyph-name="unia4" unicode="&#xa4;" d="M119 0L119 159L51 159L51 245L119 245L119 310L51 310L51 411L119 411L119 710L371 710Q479 710 537 655Q595 600 595 504Q595 413 531 361Q467 309 365 309L248 309L248 245L496 245L496 159L248 159L248 0L119 0M248 411L347 411Q403 411 433 439Q463 467 463 511Q463 555 433.50 581.50Q404 608 349 608L248 608L248 411Z"  horiz-adv-x="624" vert-adv-y="1000"  />

      
      <glyph glyph-name="unia5" unicode="&#xa5;" d="M64 186L64 263L227 263L227 296L202 344L64 344L64 420L163 420L9 710L156 710L249 520L292 406L294 406Q314 465 337 520L430 710L577 710L423 420L521 420L521 344L384 344L358 296L358 263L521 263L521 186L358 186L358 0L227 0L227 186L64 186Z"  horiz-adv-x="586" vert-adv-y="1000"  />

      
      <glyph glyph-name="unia7" unicode="&#xa7;" d="M143 138L70 482Q63 509 63 539Q63 620 117.50 671Q172 722 268 722Q368 722 435 660L378 579Q331 618 269 618Q223 618 194.50 595Q166 572 166 524Q166 501 173 474L242 138L143 138M44-1L98 85Q148 41 211 41Q256 41 285 66.50Q314 92 314 142Q314 166 305 199L238 522L338 522L409 178Q416 150 416 121Q416 40 361.50-11Q307-62 211-62Q111-62 44-1Z"  horiz-adv-x="479" vert-adv-y="1000"  />

      
      <glyph glyph-name="unia8" unicode="&#xa8;" d="M290 777L290 893L387 893L387 777L290 777M106 777L106 893L204 893L204 777L106 777Z"  horiz-adv-x="493" vert-adv-y="1000"  />

      
      <glyph glyph-name="unia9" unicode="&#xa9;" d="M154.50 95.50Q154.50 95.50 102.25 149.25Q50 203 50 355Q50 507 154.50 614Q259 721 407 721Q558 721 662.50 614Q767 507 767 355Q767 202 662 95Q557-12 407-12Q259-12 154.50 95.50M216.50 557.50Q216.50 557.50 177.75 516.25Q139 475 139 355Q139 235 216.50 152Q294 69 407 69Q522 69 600.50 152Q679 235 679 355Q679 475 600.50 557.50Q522 640 407 640Q294 640 216.50 557.50M278 215Q278 215 251.50 243.50Q225 272 225 353Q225 434 278.50 491Q332 548 412 548Q466 548 509.50 519.50Q553 491 575 443L498 407Q488 431 465 448Q442 465 415 465Q372 465 344.50 432.50Q317 400 317 353Q317 304 343.50 272.50Q370 241 415 241Q442 241 464 257.50Q486 274 498 299L575 264Q557 220 513 189Q469 158 412 158Q331 158 278 215Z"  horiz-adv-x="817" vert-adv-y="1000"  />

      
      <glyph glyph-name="uniaa" unicode="&#xaa;" d="M175 383Q132 383 100 409.50Q68 436 68 481Q68 591 253 591L262 591L262 598Q262 650 204 650Q165 650 122 623L90 682Q140 720 218 720Q283 720 317.50 685.50Q352 651 352 590L352 389L268 389L268 433L266 433Q255 411 230.50 397Q206 383 175 383M198 453Q225 453 243 475Q261 497 261 525L261 532L250 532Q158 532 158 487Q158 472 169 462.50Q180 453 198 453M69 266L69 334L355 334L355 266L69 266Z"  horiz-adv-x="428" vert-adv-y="1000"  />

      
      <glyph glyph-name="uniab" unicode="&#xab;" d="M265 282L429 488L550 488L386 282L550 77L429 77L265 282M204 77L40 282L204 488L325 488L161 282L325 77L204 77Z"  horiz-adv-x="598" vert-adv-y="1000"  />

      
      <glyph glyph-name="uniac" unicode="&#xac;" d="M62 339L62 437L551 437L551 143L448 143L448 339L62 339Z"  horiz-adv-x="624" vert-adv-y="1000"  />

      
      <glyph glyph-name="uniad" unicode="&#xad;" d="M66 230L66 341L366 341L366 230L66 230Z"  horiz-adv-x="432" vert-adv-y="1000"  />

      
      <glyph glyph-name="uniae" unicode="&#xae;" d="M154.50 95.50Q154.50 95.50 102.25 149.25Q50 203 50 355Q50 507 154.50 614Q259 721 407 721Q558 721 662.50 614Q767 507 767 355Q767 202 662 95Q557-12 407-12Q259-12 154.50 95.50M216.50 557.50Q216.50 557.50 177.75 516.25Q139 475 139 355Q139 235 216.50 152Q294 69 407 69Q522 69 600.50 152Q679 235 679 355Q679 475 600.50 557.50Q522 640 407 640Q294 640 216.50 557.50M282 174L282 540L434 540Q489 540 521.50 508.50Q554 477 554 424Q554 385 533.50 360Q513 335 489 329L489 327Q493 323 502 306L571 174L477 174L416 309L367 309L367 174L282 174M367 369L414 369Q439 369 453 383.50Q467 398 467 424Q467 450 453.50 464Q440 478 416 478L367 478L367 369Z"  horiz-adv-x="817" vert-adv-y="1000"  />

      
      <glyph glyph-name="uniaf" unicode="&#xaf;" d="M116 783L116 870L378 870L378 783L116 783Z"  horiz-adv-x="493" vert-adv-y="1000"  />

      
      <glyph glyph-name="unib0" unicode="&#xb0;" d="M326 453.50Q326 453.50 302 430.75Q278 408 210 408Q142 408 94.50 453.50Q47 499 47 565Q47 630 94.50 676.50Q142 723 210 723Q277 723 325.50 676.50Q374 630 374 565Q374 499 326 453.50M163 518Q163 518 172.50 508.50Q182 499 210 499Q238 499 257.50 518Q277 537 277 565Q277 592 257.50 611.50Q238 631 210 631Q182 631 163 611.50Q144 592 144 565Q144 537 163 518Z"  horiz-adv-x="420" vert-adv-y="1000"  />

      
      <glyph glyph-name="unib1" unicode="&#xb1;" d="M25 236L25 335L242 335L242 572L345 572L345 335L561 335L561 236L345 236L345 0L242 0L242 236L25 236M39-85L547-85L547-183L39-183L39-85Z"  horiz-adv-x="586" vert-adv-y="1000"  />

      
      <glyph glyph-name="unib2" unicode="&#xb2;" d="M43 423Q39 451 39 464Q39 505 54.50 538Q70 571 93 591Q116 611 142.50 630Q169 649 192 662.50Q215 676 230.50 694Q246 712 246 732Q246 755 228.50 769.50Q211 784 185 784Q145 784 105 738L43 793Q65 828 105 850Q145 872 190 872Q253 872 297.50 835.50Q342 799 342 736Q342 696 322.50 664.50Q303 633 274.50 613.50Q246 594 217.50 578Q189 562 167.50 544Q146 526 144 506L348 506L348 423L43 423Z"  horiz-adv-x="392" vert-adv-y="1000"  />

      
      <glyph glyph-name="unib3" unicode="&#xb3;" d="M184 413Q141 413 99.50 430.50Q58 448 32 480L81 547Q97 527 123.50 513.50Q150 500 179 500Q209 500 230 518Q251 536 251 563Q251 590 228 605Q205 620 173 620L138 620L118 665L196 755L221 779L221 781Q201 778 185 778L56 778L56 862L336 862L336 801L238 689Q287 680 317 647Q347 614 347 562Q347 501 302 457Q257 413 184 413Z"  horiz-adv-x="392" vert-adv-y="1000"  />

      
      <glyph glyph-name="unib4" unicode="&#xb4;" d="M143 757L219 893L350 893L245 757L143 757Z"  horiz-adv-x="493" vert-adv-y="1000"  />

      
      <glyph glyph-name="unib5" unicode="&#xb5;" d="M180 9Q188-40 188-74L188-200L78-200L78 510L205 510L205 208Q205 157 222 130.50Q239 104 283 104Q350 104 388 154Q426 204 426 276L426 510L553 510L553 0L431 0L431 62L433 94L430 94Q428 90 424.50 82.50Q421 75 406 57Q391 39 373 25Q355 11 323-0.50Q291-12 254-12Q207-12 182 9L180 9Z"  horiz-adv-x="613" vert-adv-y="1000"  />

      
      <glyph glyph-name="uni03BC" unicode="&#x03BC;" d="M180 9Q188-40 188-74L188-200L78-200L78 510L205 510L205 208Q205 157 222 130.50Q239 104 283 104Q350 104 388 154Q426 204 426 276L426 510L553 510L553 0L431 0L431 62L433 94L430 94Q428 90 424.50 82.50Q421 75 406 57Q391 39 373 25Q355 11 323-0.50Q291-12 254-12Q207-12 182 9L180 9Z"  horiz-adv-x="613" vert-adv-y="1000"  />

      
      <glyph glyph-name="unib6" unicode="&#xb6;" d="M271-50L271 241Q174 241 105 309.50Q36 378 36 476Q36 574 105 642Q174 710 271 710L576 710L576 599L363 599L363-50L271-50M425-50L425 544L518 544L518-50L425-50Z"  horiz-adv-x="626" vert-adv-y="1000"  />

      
      <glyph glyph-name="unib7" unicode="&#xb7;" d="M66 228L66 356L189 356L189 228L66 228Z"  horiz-adv-x="255" vert-adv-y="1000"  />

      
      <glyph glyph-name="unib8" unicode="&#xb8;" d="M180-86L211 25L269 12L269 5L258-44Q291-48 311-67Q331-86 331-120Q331-166 300-187Q269-208 223-208Q190-208 162-201L162-131Q178-139 205-139Q249-139 249-111Q249-84 201-84L180-86Z"  horiz-adv-x="493" vert-adv-y="1000"  />

      
      <glyph glyph-name="unib9" unicode="&#xb9;" d="M66 423L66 506L158 506L158 713L160 741L158 741Q154 732 143 722L112 693L56 753L169 862L253 862L253 506L344 506L344 423L66 423Z"  horiz-adv-x="392" vert-adv-y="1000"  />

      
      <glyph glyph-name="uniba" unicode="&#xba;" d="M365 432Q365 432 339.50 408Q314 384 240 384Q166 384 115 432Q64 480 64 553Q64 625 115 672.50Q166 720 239 720Q314 720 365 673Q416 626 416 553Q416 480 365 432M240 464Q275 464 299.50 489Q324 514 324 553Q324 591 299.50 616Q275 641 240 641Q204 641 179.50 616Q155 591 155 553Q155 514 179.50 489Q204 464 240 464M79 266L79 334L402 334L402 266L79 266Z"  horiz-adv-x="480" vert-adv-y="1000"  />

      
      <glyph glyph-name="unibb" unicode="&#xbb;" d="M272 77L436 282L272 488L393 488L557 282L393 77L272 77M48 77L212 282L48 488L169 488L333 282L169 77L48 77Z"  horiz-adv-x="598" vert-adv-y="1000"  />

      
      <glyph glyph-name="unibc" unicode="&#xbc;" d="M787 0L787 99L584 99L584 163L773 439L881 439L881 181L939 181L939 99L881 99L881 0L787 0M680 181L787 181L787 291L791 346L789 346Q777 319 763 299L680 183L680 181M359 0L266 0L602 710L694 710L359 0M57 272L57 355L149 355L149 562L151 590L149 590Q145 581 134 571L103 542L47 602L160 711L244 711L244 355L335 355L335 272L57 272Z"  horiz-adv-x="977" vert-adv-y="1000"  />

      
      <glyph glyph-name="unibd" unicode="&#xbd;" d="M617 0Q613 28 613 41Q613 82 628.50 115Q644 148 667 168Q690 188 716.50 207Q743 226 766 239.50Q789 253 804.50 271Q820 289 820 309Q820 332 802.50 346.50Q785 361 759 361Q719 361 679 315L617 370Q639 405 679 427Q719 449 764 449Q827 449 871.50 412.50Q916 376 916 313Q916 273 896.50 241.50Q877 210 848.50 190.50Q820 171 791.50 155Q763 139 741.50 121Q720 103 718 83L922 83L922 0L617 0M360 0L267 0L603 710L695 710L360 0M56 272L56 355L148 355L148 562L150 590L148 590Q144 581 133 571L102 542L46 602L159 711L243 711L243 355L334 355L334 272L56 272Z"  horiz-adv-x="967" vert-adv-y="1000"  />

      
      <glyph glyph-name="unibe" unicode="&#xbe;" d="M798 0L798 99L595 99L595 163L784 439L892 439L892 181L950 181L950 99L892 99L892 0L798 0M691 181L798 181L798 291L802 346L800 346Q788 319 774 299L691 183L691 181M191 262Q148 262 106.50 279.50Q65 297 39 329L88 396Q104 376 130.50 362.50Q157 349 186 349Q216 349 237 367Q258 385 258 412Q258 439 235 454Q212 469 180 469L145 469L125 514L203 604L228 628L228 630Q208 627 192 627L63 627L63 711L343 711L343 650L245 538Q294 529 324 496Q354 463 354 411Q354 350 309 306Q264 262 191 262M370 0L277 0L613 710L705 710L370 0Z"  horiz-adv-x="990" vert-adv-y="1000"  />

      
      <glyph glyph-name="unibf" unicode="&#xbf;" d="M333 304L333 256Q333 216 316 183Q299 150 275 128Q251 106 227 85.50Q203 65 186 39.50Q169 14 169-15Q169-50 197-74Q225-98 266-98Q321-98 372-56L443-143Q367-215 255-215Q166-215 101-163.50Q36-112 36-27Q36 19 54 56Q72 93 97.50 117Q123 141 149 162.50Q175 184 193 210Q211 236 211 265L211 304L333 304M334 509L334 390L211 390L211 509L334 509Z"  horiz-adv-x="475" vert-adv-y="1000"  />

      
      <glyph glyph-name="unic0" unicode="&#xc0;" d="M8 0L257 710L393 710L642 0L510 0L449 182L200 182L140 0L8 0M232 287L417 287L354 477L326 587L324 587Q308 517 296 477L232 287M276 757L172 893L303 893L379 757L276 757Z"  horiz-adv-x="650" vert-adv-y="1000"  />

      
      <glyph glyph-name="unic1" unicode="&#xc1;" d="M8 0L257 710L393 710L642 0L510 0L449 182L200 182L140 0L8 0M232 287L417 287L354 477L326 587L324 587Q308 517 296 477L232 287M270 757L346 893L477 893L372 757L270 757Z"  horiz-adv-x="650" vert-adv-y="1000"  />

      
      <glyph glyph-name="unic2" unicode="&#xc2;" d="M8 0L257 710L393 710L642 0L510 0L449 182L200 182L140 0L8 0M232 287L417 287L354 477L326 587L324 587Q308 517 296 477L232 287M169 757L261 893L388 893L481 757L376 757L326 838L324 838L274 757L169 757Z"  horiz-adv-x="650" vert-adv-y="1000"  />

      
      <glyph glyph-name="unic3" unicode="&#xc3;" d="M8 0L257 710L393 710L642 0L510 0L449 182L200 182L140 0L8 0M232 287L417 287L354 477L326 587L324 587Q308 517 296 477L232 287M143 758Q143 895 255 895Q284 895 306.50 878.50Q329 862 347 846Q365 830 381 830Q420 830 420 892L506 892Q506 755 394 755Q365 755 342.50 771.50Q320 788 302 804Q284 820 268 820Q230 820 230 758L143 758Z"  horiz-adv-x="650" vert-adv-y="1000"  />

      
      <glyph glyph-name="unic4" unicode="&#xc4;" d="M8 0L257 710L393 710L642 0L510 0L449 182L200 182L140 0L8 0M232 287L417 287L354 477L326 587L324 587Q308 517 296 477L232 287M368 777L368 893L465 893L465 777L368 777M184 777L184 893L282 893L282 777L184 777Z"  horiz-adv-x="650" vert-adv-y="1000"  />

      
      <glyph glyph-name="unic5" unicode="&#xc5;" d="M8 0L257 710L393 710L642 0L510 0L449 182L200 182L140 0L8 0M232 287L417 287L354 477L326 587L324 587Q308 517 296 477L232 287M325 745Q286 745 258 766Q230 787 230 823Q230 860 258 881Q286 902 325 902Q363 902 391 881Q419 860 419 823Q419 787 391 766Q363 745 325 745M325 789Q340 789 349.50 798.50Q359 808 359 823Q359 839 349.50 848.50Q340 858 325 858Q310 858 300.50 848.50Q291 839 291 823Q291 808 300 798.50Q309 789 325 789Z"  horiz-adv-x="650" vert-adv-y="1000"  />

      
      <glyph glyph-name="unic6" unicode="&#xc6;" d="M2 0L296 710L850 710L850 599L553 599L553 413L792 413L792 302L553 302L553 111L865 111L865 0L425 0L425 304L255 304L136 0L2 0M296 409L425 409L425 599L372 599L296 409Z"  horiz-adv-x="905" vert-adv-y="1000"  />

      
      <glyph glyph-name="unic7" unicode="&#xc7;" d="M345-86L366-10Q220 5 132.50 107.50Q45 210 45 358Q45 514 148 618Q251 722 410 722Q572 722 672 625L610 529Q571 562 518.50 583Q466 604 416 604Q304 604 241 534Q178 464 178 360Q178 255 242 180.50Q306 106 417 106Q531 106 623 196L691 103Q585-4 430-11L423-44Q456-48 476-67Q496-86 496-120Q496-166 465-187Q434-208 388-208Q355-208 327-201L327-131Q343-139 370-139Q414-139 414-111Q414-84 366-84L345-86Z"  horiz-adv-x="716" vert-adv-y="1000"  />

      
      <glyph glyph-name="unic8" unicode="&#xc8;" d="M86 0L86 710L511 710L511 599L215 599L215 413L454 413L454 302L215 302L215 111L527 111L527 0L86 0M260 757L156 893L287 893L363 757L260 757Z"  horiz-adv-x="568" vert-adv-y="1000"  />

      
      <glyph glyph-name="unic9" unicode="&#xc9;" d="M253 757L329 893L460 893L355 757L253 757M86 0L86 710L511 710L511 599L215 599L215 413L454 413L454 302L215 302L215 111L527 111L527 0L86 0Z"  horiz-adv-x="568" vert-adv-y="1000"  />

      
      <glyph glyph-name="unica" unicode="&#xca;" d="M152 757L244 893L371 893L464 757L359 757L309 838L307 838L257 757L152 757M86 0L86 710L511 710L511 599L215 599L215 413L454 413L454 302L215 302L215 111L527 111L527 0L86 0Z"  horiz-adv-x="568" vert-adv-y="1000"  />

      
      <glyph glyph-name="unicb" unicode="&#xcb;" d="M352 777L352 893L449 893L449 777L352 777M168 777L168 893L266 893L266 777L168 777M86 0L86 710L511 710L511 599L215 599L215 413L454 413L454 302L215 302L215 111L527 111L527 0L86 0Z"  horiz-adv-x="568" vert-adv-y="1000"  />

      
      <glyph glyph-name="unicc" unicode="&#xcc;" d="M86 0L86 710L215 710L215 0L86 0M103 757L-1 893L130 893L206 757L103 757Z"  horiz-adv-x="301" vert-adv-y="1000"  />

      
      <glyph glyph-name="unicd" unicode="&#xcd;" d="M86 0L86 710L215 710L215 0L86 0M97 757L173 893L304 893L199 757L97 757Z"  horiz-adv-x="301" vert-adv-y="1000"  />

      
      <glyph glyph-name="unice" unicode="&#xce;" d="M86 0L86 710L215 710L215 0L86 0M-4 757L88 893L215 893L308 757L203 757L153 838L151 838L101 757L-4 757Z"  horiz-adv-x="301" vert-adv-y="1000"  />

      
      <glyph glyph-name="unicf" unicode="&#xcf;" d="M86 0L86 710L215 710L215 0L86 0M195 777L195 893L292 893L292 777L195 777M11 777L11 893L109 893L109 777L11 777Z"  horiz-adv-x="301" vert-adv-y="1000"  />

      
      <glyph glyph-name="unid0" unicode="&#xd0;" d="M92 0L92 301L34 301L34 406L92 406L92 710L334 710Q500 710 598 616Q696 522 696 356Q696 190 598 95Q500 0 334 0L92 0M220 111L327 111Q437 111 500 174.50Q563 238 563 356Q563 472 499.50 535.50Q436 599 327 599L220 599L220 406L352 406L352 301L220 301L220 111Z"  horiz-adv-x="743" vert-adv-y="1000"  />

      
      <glyph glyph-name="unid1" unicode="&#xd1;" d="M86 0L86 710L215 710L484 300Q496 281 510.50 253.50Q525 226 534 208L543 190L545 190Q538 258 538 300L538 710L666 710L666 0L538 0L269 409Q257 428 242.50 455.50Q228 483 219 501L210 519L208 519Q215 451 215 409L215 0L86 0M195 758Q195 895 307 895Q336 895 358.50 878.50Q381 862 399 846Q417 830 433 830Q472 830 472 892L558 892Q558 755 446 755Q417 755 394.50 771.50Q372 788 354 804Q336 820 320 820Q282 820 282 758L195 758Z"  horiz-adv-x="753" vert-adv-y="1000"  />

      
      <glyph glyph-name="unid2" unicode="&#xd2;" d="M44 360Q44 514 147.50 618Q251 722 411 722Q571 722 674.50 618Q778 514 778 360Q778 202 674.50 95Q571-12 411-12Q251-12 147.50 95Q44 202 44 360M177 360Q177 251 243.50 178.50Q310 106 411 106Q512 106 578.50 178.50Q645 251 645 360Q645 464 578.50 534Q512 604 411 604Q310 604 243.50 534Q177 464 177 360M362 757L258 893L389 893L465 757L362 757Z"  horiz-adv-x="822" vert-adv-y="1000"  />

      
      <glyph glyph-name="unid3" unicode="&#xd3;" d="M356 757L432 893L563 893L458 757L356 757M44 360Q44 514 147.50 618Q251 722 411 722Q571 722 674.50 618Q778 514 778 360Q778 202 674.50 95Q571-12 411-12Q251-12 147.50 95Q44 202 44 360M177 360Q177 251 243.50 178.50Q310 106 411 106Q512 106 578.50 178.50Q645 251 645 360Q645 464 578.50 534Q512 604 411 604Q310 604 243.50 534Q177 464 177 360Z"  horiz-adv-x="822" vert-adv-y="1000"  />

      
      <glyph glyph-name="unid4" unicode="&#xd4;" d="M255 757L347 893L474 893L567 757L462 757L412 838L410 838L360 757L255 757M44 360Q44 514 147.50 618Q251 722 411 722Q571 722 674.50 618Q778 514 778 360Q778 202 674.50 95Q571-12 411-12Q251-12 147.50 95Q44 202 44 360M177 360Q177 251 243.50 178.50Q310 106 411 106Q512 106 578.50 178.50Q645 251 645 360Q645 464 578.50 534Q512 604 411 604Q310 604 243.50 534Q177 464 177 360Z"  horiz-adv-x="822" vert-adv-y="1000"  />

      
      <glyph glyph-name="unid5" unicode="&#xd5;" d="M44 360Q44 514 147.50 618Q251 722 411 722Q571 722 674.50 618Q778 514 778 360Q778 202 674.50 95Q571-12 411-12Q251-12 147.50 95Q44 202 44 360M177 360Q177 251 243.50 178.50Q310 106 411 106Q512 106 578.50 178.50Q645 251 645 360Q645 464 578.50 534Q512 604 411 604Q310 604 243.50 534Q177 464 177 360M229 758Q229 895 341 895Q370 895 392.50 878.50Q415 862 433 846Q451 830 467 830Q506 830 506 892L592 892Q592 755 480 755Q451 755 428.50 771.50Q406 788 388 804Q370 820 354 820Q316 820 316 758L229 758Z"  horiz-adv-x="822" vert-adv-y="1000"  />

      
      <glyph glyph-name="unid6" unicode="&#xd6;" d="M454 777L454 893L551 893L551 777L454 777M270 777L270 893L368 893L368 777L270 777M44 360Q44 514 147.50 618Q251 722 411 722Q571 722 674.50 618Q778 514 778 360Q778 202 674.50 95Q571-12 411-12Q251-12 147.50 95Q44 202 44 360M177 360Q177 251 243.50 178.50Q310 106 411 106Q512 106 578.50 178.50Q645 251 645 360Q645 464 578.50 534Q512 604 411 604Q310 604 243.50 534Q177 464 177 360Z"  horiz-adv-x="822" vert-adv-y="1000"  />

      
      <glyph glyph-name="unid7" unicode="&#xd7;" d="M28 69L225 286L28 502L98 572L292 359L487 572L557 502L359 286L557 69L487 0L292 213L98 0L28 69Z"  horiz-adv-x="586" vert-adv-y="1000"  />

      
      <glyph glyph-name="unid8" unicode="&#xd8;" d="M116 13L164 81Q44 190 44 359Q44 512 149.50 617Q255 722 411 722Q509 722 593 676L637 736L694 697L651 637Q711 586 744.50 514.50Q778 443 778 359Q778 202 672.50 95Q567-12 411-12Q306-12 220 40L173-26L116 13M240 186L520 575Q468 604 411 604Q313 604 245 534Q177 464 177 359Q177 257 240 186M292 140Q346 106 411 106Q509 106 577 178.50Q645 251 645 359Q645 464 576 533L292 140Z"  horiz-adv-x="821" vert-adv-y="1000"  />

      
      <glyph glyph-name="unid9" unicode="&#xd9;" d="M78 255L78 710L207 710L207 256Q207 185 249.50 145.50Q292 106 364 106Q436 106 478.50 145.50Q521 185 521 256L521 710L650 710L650 255Q650 136 571.50 62Q493-12 365-12Q236-12 157 62Q78 136 78 255M315 757L211 893L342 893L418 757L315 757Z"  horiz-adv-x="728" vert-adv-y="1000"  />

      
      <glyph glyph-name="unida" unicode="&#xda;" d="M309 757L385 893L516 893L411 757L309 757M78 255L78 710L207 710L207 256Q207 185 249.50 145.50Q292 106 364 106Q436 106 478.50 145.50Q521 185 521 256L521 710L650 710L650 255Q650 136 571.50 62Q493-12 365-12Q236-12 157 62Q78 136 78 255Z"  horiz-adv-x="728" vert-adv-y="1000"  />

      
      <glyph glyph-name="unidb" unicode="&#xdb;" d="M208 757L300 893L427 893L520 757L415 757L365 838L363 838L313 757L208 757M78 255L78 710L207 710L207 256Q207 185 249.50 145.50Q292 106 364 106Q436 106 478.50 145.50Q521 185 521 256L521 710L650 710L650 255Q650 136 571.50 62Q493-12 365-12Q236-12 157 62Q78 136 78 255Z"  horiz-adv-x="728" vert-adv-y="1000"  />

      
      <glyph glyph-name="unidc" unicode="&#xdc;" d="M407 777L407 893L504 893L504 777L407 777M223 777L223 893L321 893L321 777L223 777M78 255L78 710L207 710L207 256Q207 185 249.50 145.50Q292 106 364 106Q436 106 478.50 145.50Q521 185 521 256L521 710L650 710L650 255Q650 136 571.50 62Q493-12 365-12Q236-12 157 62Q78 136 78 255Z"  horiz-adv-x="728" vert-adv-y="1000"  />

      
      <glyph glyph-name="unidd" unicode="&#xdd;" d="M239 0L239 297L2 710L148 710L259 501L302 406L304 406Q325 457 347 501L457 710L603 710L367 297L367 0L239 0M248 757L324 893L455 893L350 757L248 757Z"  horiz-adv-x="606" vert-adv-y="1000"  />

      
      <glyph glyph-name="unide" unicode="&#xde;" d="M86 0L86 710L215 710L215 595L360 595Q460 595 523 531Q586 467 586 364Q586 261 523 196Q460 131 359 131L215 131L215 0L86 0M215 242L336 242Q392 242 423.50 275Q455 308 455 364Q455 420 424 452Q393 484 338 484L215 484L215 242Z"  horiz-adv-x="616" vert-adv-y="1000"  />

      
      <glyph glyph-name="unidf" unicode="&#xdf;" d="M68 0L68 529Q68 619 137 670.50Q206 722 300 722Q387 722 446.50 672.50Q506 623 506 548Q506 517 492 490Q478 463 461.50 447.50Q445 432 431 411.50Q417 391 417 372Q417 353 442 331Q467 309 497.50 289Q528 269 553 233Q578 197 578 154Q578 77 526 35Q474-7 398-7Q315-7 263 19L263 127Q318 101 379 101Q410 101 430 115.50Q450 130 450 161Q450 183 424.50 206.50Q399 230 369 249Q339 268 313.50 300Q288 332 288 369Q288 395 302 420.50Q316 446 333 462.50Q350 479 364 501.50Q378 524 378 546Q378 574 356 594Q334 614 296 614Q253 614 224 590.50Q195 567 195 520L195 0L68 0Z"  horiz-adv-x="602" vert-adv-y="1000"  />

      
      <glyph glyph-name="unie0" unicode="&#xe0;" d="M29 141Q29 195 58.50 233Q88 271 136.50 288.50Q185 306 230.50 313Q276 320 326 320L348 320L348 327Q348 417 252 417Q182 417 110 368L63 459Q96 485 152 503.50Q208 522 263 522Q363 522 419 468.50Q475 415 475 319L475 0L357 0L357 43L360 80L358 80Q334 39 291 13.50Q248-12 197-12Q126-12 77.50 30.50Q29 73 29 141M155 152Q155 125 175.50 105Q196 85 232 85Q283 85 316 127Q349 169 349 219L349 233L327 233Q155 233 155 152M219 574L115 710L246 710L322 574L219 574Z"  horiz-adv-x="537" vert-adv-y="1000"  />

      
      <glyph glyph-name="unie1" unicode="&#xe1;" d="M29 141Q29 195 58.50 233Q88 271 136.50 288.50Q185 306 230.50 313Q276 320 326 320L348 320L348 327Q348 417 252 417Q182 417 110 368L63 459Q96 485 152 503.50Q208 522 263 522Q363 522 419 468.50Q475 415 475 319L475 0L357 0L357 43L360 80L358 80Q334 39 291 13.50Q248-12 197-12Q126-12 77.50 30.50Q29 73 29 141M155 152Q155 125 175.50 105Q196 85 232 85Q283 85 316 127Q349 169 349 219L349 233L327 233Q155 233 155 152M211 574L287 710L418 710L313 574L211 574Z"  horiz-adv-x="537" vert-adv-y="1000"  />

      
      <glyph glyph-name="unie2" unicode="&#xe2;" d="M29 141Q29 195 58.50 233Q88 271 136.50 288.50Q185 306 230.50 313Q276 320 326 320L348 320L348 327Q348 417 252 417Q182 417 110 368L63 459Q96 485 152 503.50Q208 522 263 522Q363 522 419 468.50Q475 415 475 319L475 0L357 0L357 43L360 80L358 80Q334 39 291 13.50Q248-12 197-12Q126-12 77.50 30.50Q29 73 29 141M155 152Q155 125 175.50 105Q196 85 232 85Q283 85 316 127Q349 169 349 219L349 233L327 233Q155 233 155 152M110 574L202 710L329 710L422 574L317 574L267 655L265 655L215 574L110 574Z"  horiz-adv-x="537" vert-adv-y="1000"  />

      
      <glyph glyph-name="unie3" unicode="&#xe3;" d="M29 141Q29 195 58.50 233Q88 271 136.50 288.50Q185 306 230.50 313Q276 320 326 320L348 320L348 327Q348 417 252 417Q182 417 110 368L63 459Q96 485 152 503.50Q208 522 263 522Q363 522 419 468.50Q475 415 475 319L475 0L357 0L357 43L360 80L358 80Q334 39 291 13.50Q248-12 197-12Q126-12 77.50 30.50Q29 73 29 141M155 152Q155 125 175.50 105Q196 85 232 85Q283 85 316 127Q349 169 349 219L349 233L327 233Q155 233 155 152M85 575Q85 712 197 712Q220 712 239.50 702Q259 692 270 679.50Q281 667 295.50 657Q310 647 323 647Q362 647 362 709L448 709Q448 572 336 572Q313 572 293.50 582Q274 592 263 604.50Q252 617 237.50 627Q223 637 210 637Q172 637 172 575L85 575Z"  horiz-adv-x="537" vert-adv-y="1000"  />

      
      <glyph glyph-name="unie4" unicode="&#xe4;" d="M29 141Q29 195 58.50 233Q88 271 136.50 288.50Q185 306 230.50 313Q276 320 326 320L348 320L348 327Q348 417 252 417Q182 417 110 368L63 459Q96 485 152 503.50Q208 522 263 522Q363 522 419 468.50Q475 415 475 319L475 0L357 0L357 43L360 80L358 80Q334 39 291 13.50Q248-12 197-12Q126-12 77.50 30.50Q29 73 29 141M155 152Q155 125 175.50 105Q196 85 232 85Q283 85 316 127Q349 169 349 219L349 233L327 233Q155 233 155 152M310 594L310 710L407 710L407 594L310 594M126 594L126 710L224 710L224 594L126 594Z"  horiz-adv-x="537" vert-adv-y="1000"  />

      
      <glyph glyph-name="unie5" unicode="&#xe5;" d="M29 141Q29 195 58.50 233Q88 271 136.50 288.50Q185 306 230.50 313Q276 320 326 320L348 320L348 327Q348 417 252 417Q182 417 110 368L63 459Q96 485 152 503.50Q208 522 263 522Q363 522 419 468.50Q475 415 475 319L475 0L357 0L357 43L360 80L358 80Q334 39 291 13.50Q248-12 197-12Q126-12 77.50 30.50Q29 73 29 141M155 152Q155 125 175.50 105Q196 85 232 85Q283 85 316 127Q349 169 349 219L349 233L327 233Q155 233 155 152M266 562Q227 562 199 583Q171 604 171 640Q171 677 199 698Q227 719 266 719Q304 719 332 698Q360 677 360 640Q360 604 332 583Q304 562 266 562M266 606Q281 606 290.50 615.50Q300 625 300 640Q300 656 290.50 665.50Q281 675 266 675Q251 675 241.50 665.50Q232 656 232 640Q232 625 241 615.50Q250 606 266 606Z"  horiz-adv-x="537" vert-adv-y="1000"  />

      
      <glyph glyph-name="unie6" unicode="&#xe6;" d="M29 147Q29 320 331 320L348 320L348 327Q348 417 249 417Q179 417 109 368L62 458Q95 486 149.50 504Q204 522 258 522Q377 522 424 447L426 447Q487 522 596 522Q700 522 760.50 453Q821 384 821 279Q821 270 819.50 253Q818 236 818 232L469 232Q475 166 516.50 131Q558 96 619 96Q699 96 766 151L815 61Q779 28 722 8Q665-12 610-12Q464-12 397 100L395 100Q389 87 377.50 72Q366 57 343.50 36.50Q321 16 284 2.50Q247-11 203-11Q130-11 79.50 32Q29 75 29 147M473 320L693 320Q692 367 663.50 395Q635 423 595 423Q546 423 514.50 396Q483 369 473 320M157 153Q157 125 177 106Q197 87 235 87Q284 87 317 129.50Q350 172 350 222L350 232L314 232Q274 232 242 226.50Q210 221 183.50 202Q157 183 157 153Z"  horiz-adv-x="859" vert-adv-y="1000"  />

      
      <glyph glyph-name="unie7" unicode="&#xe7;" d="M245-86L266-8Q162 6 99.50 79.50Q37 153 37 255Q37 367 113.50 444.50Q190 522 314 522Q369 522 422 503Q475 484 510 446L453 359Q398 414 321 414Q252 414 209 368.50Q166 323 166 256Q166 189 210 142.50Q254 96 325 96Q408 96 475 161L524 71Q490 35 438.50 13.50Q387-8 330-11L323-44Q356-48 376-67Q396-86 396-120Q396-166 365-187Q334-208 288-208Q255-208 227-201L227-131Q243-139 270-139Q314-139 314-111Q314-84 266-84L245-86Z"  horiz-adv-x="548" vert-adv-y="1000"  />

      
      <glyph glyph-name="unie8" unicode="&#xe8;" d="M37 255Q37 373 109.50 447.50Q182 522 297 522Q403 522 463 453.50Q523 385 523 280Q523 263 519 231L168 231Q174 167 217 131.50Q260 96 321 96Q397 96 467 152L517 61Q479 27 423.50 7.50Q368-12 312-12Q189-12 113 65.50Q37 143 37 255M171 318L396 318Q395 368 366.50 397Q338 426 294 426Q246 426 213 396.50Q180 367 171 318M247 574L143 710L274 710L350 574L247 574Z"  horiz-adv-x="561" vert-adv-y="1000"  />

      
      <glyph glyph-name="unie9" unicode="&#xe9;" d="M239 574L315 710L446 710L341 574L239 574M37 255Q37 373 109.50 447.50Q182 522 297 522Q403 522 463 453.50Q523 385 523 280Q523 263 519 231L168 231Q174 167 217 131.50Q260 96 321 96Q397 96 467 152L517 61Q479 27 423.50 7.50Q368-12 312-12Q189-12 113 65.50Q37 143 37 255M171 318L396 318Q395 368 366.50 397Q338 426 294 426Q246 426 213 396.50Q180 367 171 318Z"  horiz-adv-x="561" vert-adv-y="1000"  />

      
      <glyph glyph-name="uniea" unicode="&#xea;" d="M138 574L230 710L357 710L450 574L345 574L295 655L293 655L243 574L138 574M37 255Q37 373 109.50 447.50Q182 522 297 522Q403 522 463 453.50Q523 385 523 280Q523 263 519 231L168 231Q174 167 217 131.50Q260 96 321 96Q397 96 467 152L517 61Q479 27 423.50 7.50Q368-12 312-12Q189-12 113 65.50Q37 143 37 255M171 318L396 318Q395 368 366.50 397Q338 426 294 426Q246 426 213 396.50Q180 367 171 318Z"  horiz-adv-x="561" vert-adv-y="1000"  />

      
      <glyph glyph-name="unieb" unicode="&#xeb;" d="M338 594L338 710L435 710L435 594L338 594M154 594L154 710L252 710L252 594L154 594M37 255Q37 373 109.50 447.50Q182 522 297 522Q403 522 463 453.50Q523 385 523 280Q523 263 519 231L168 231Q174 167 217 131.50Q260 96 321 96Q397 96 467 152L517 61Q479 27 423.50 7.50Q368-12 312-12Q189-12 113 65.50Q37 143 37 255M171 318L396 318Q395 368 366.50 397Q338 426 294 426Q246 426 213 396.50Q180 367 171 318Z"  horiz-adv-x="561" vert-adv-y="1000"  />

      
      <glyph glyph-name="uniec" unicode="&#xec;" d="M68 0L68 510L195 510L195 0L68 0M84 574L-20 710L111 710L187 574L84 574Z"  horiz-adv-x="263" vert-adv-y="1000"  />

      
      <glyph glyph-name="unied" unicode="&#xed;" d="M77 574L153 710L284 710L179 574L77 574M68 0L68 510L195 510L195 0L68 0Z"  horiz-adv-x="263" vert-adv-y="1000"  />

      
      <glyph glyph-name="uniee" unicode="&#xee;" d="M-24 574L68 710L195 710L288 574L183 574L133 655L131 655L81 574L-24 574M68 0L68 510L195 510L195 0L68 0Z"  horiz-adv-x="263" vert-adv-y="1000"  />

      
      <glyph glyph-name="unief" unicode="&#xef;" d="M176 594L176 710L273 710L273 594L176 594M-8 594L-8 710L90 710L90 594L-8 594M68 0L68 510L195 510L195 0L68 0Z"  horiz-adv-x="263" vert-adv-y="1000"  />

      
      <glyph glyph-name="unif0" unicode="&#xf0;" d="M38 237Q38 331 101.50 398Q165 465 273 465Q301 465 326.50 457.50Q352 450 364 443L375 436L377 436Q350 499 283 542L98 462L92 537L203 586Q154 610 88 626L123 726Q247 699 340 643L487 706L493 632L405 593Q542 473 542 278Q542 224 527.50 174.50Q513 125 483.50 82Q454 39 402 13.50Q350-12 282-12Q171-12 104.50 62Q38 136 38 237M167 234Q167 177 197.50 136Q228 95 285 95Q349 95 381.50 143Q414 191 414 255Q414 304 382 335Q350 366 296 366Q234 366 200.50 327.50Q167 289 167 234Z"  horiz-adv-x="583" vert-adv-y="1000"  />

      
      <glyph glyph-name="unif1" unicode="&#xf1;" d="M68 0L68 510L190 510L190 450L188 414L190 414Q210 455 256 488.50Q302 522 371 522Q549 522 549 328L549 0L422 0L422 302Q422 353 404.50 379.50Q387 406 342 406Q276 406 235.50 358Q195 310 195 239L195 0L68 0M133 575Q133 712 245 712Q268 712 287.50 702Q307 692 318 679.50Q329 667 343.50 657Q358 647 371 647Q410 647 410 709L496 709Q496 572 384 572Q361 572 341.50 582Q322 592 311 604.50Q300 617 285.50 627Q271 637 258 637Q220 637 220 575L133 575Z"  horiz-adv-x="612" vert-adv-y="1000"  />

      
      <glyph glyph-name="unif2" unicode="&#xf2;" d="M118 63.50Q118 63.50 77.50 101.25Q37 139 37 255Q37 371 118 446.50Q199 522 316 522Q434 522 515.50 446.50Q597 371 597 255Q597 139 516 63.50Q435-12 317-12Q199-12 118 63.50M166 255Q166 185 209.50 140.50Q253 96 317 96Q381 96 425 140.50Q469 185 469 255Q469 324 424.50 369Q380 414 317 414Q254 414 210 369Q166 324 166 255M268 574L164 710L295 710L371 574L268 574Z"  horiz-adv-x="634" vert-adv-y="1000"  />

      
      <glyph glyph-name="unif3" unicode="&#xf3;" d="M262 574L338 710L469 710L364 574L262 574M118 63.50Q118 63.50 77.50 101.25Q37 139 37 255Q37 371 118 446.50Q199 522 316 522Q434 522 515.50 446.50Q597 371 597 255Q597 139 516 63.50Q435-12 317-12Q199-12 118 63.50M166 255Q166 185 209.50 140.50Q253 96 317 96Q381 96 425 140.50Q469 185 469 255Q469 324 424.50 369Q380 414 317 414Q254 414 210 369Q166 324 166 255Z"  horiz-adv-x="634" vert-adv-y="1000"  />

      
      <glyph glyph-name="unif4" unicode="&#xf4;" d="M161 574L253 710L380 710L473 574L368 574L318 655L316 655L266 574L161 574M118 63.50Q118 63.50 77.50 101.25Q37 139 37 255Q37 371 118 446.50Q199 522 316 522Q434 522 515.50 446.50Q597 371 597 255Q597 139 516 63.50Q435-12 317-12Q199-12 118 63.50M166 255Q166 185 209.50 140.50Q253 96 317 96Q381 96 425 140.50Q469 185 469 255Q469 324 424.50 369Q380 414 317 414Q254 414 210 369Q166 324 166 255Z"  horiz-adv-x="634" vert-adv-y="1000"  />

      
      <glyph glyph-name="unif5" unicode="&#xf5;" d="M118 63.50Q118 63.50 77.50 101.25Q37 139 37 255Q37 371 118 446.50Q199 522 316 522Q434 522 515.50 446.50Q597 371 597 255Q597 139 516 63.50Q435-12 317-12Q199-12 118 63.50M166 255Q166 185 209.50 140.50Q253 96 317 96Q381 96 425 140.50Q469 185 469 255Q469 324 424.50 369Q380 414 317 414Q254 414 210 369Q166 324 166 255M135 575Q135 712 247 712Q270 712 289.50 702Q309 692 320 679.50Q331 667 345.50 657Q360 647 373 647Q412 647 412 709L498 709Q498 572 386 572Q363 572 343.50 582Q324 592 313 604.50Q302 617 287.50 627Q273 637 260 637Q222 637 222 575L135 575Z"  horiz-adv-x="634" vert-adv-y="1000"  />

      
      <glyph glyph-name="unif6" unicode="&#xf6;" d="M360 594L360 710L457 710L457 594L360 594M176 594L176 710L274 710L274 594L176 594M118 63.50Q118 63.50 77.50 101.25Q37 139 37 255Q37 371 118 446.50Q199 522 316 522Q434 522 515.50 446.50Q597 371 597 255Q597 139 516 63.50Q435-12 317-12Q199-12 118 63.50M166 255Q166 185 209.50 140.50Q253 96 317 96Q381 96 425 140.50Q469 185 469 255Q469 324 424.50 369Q380 414 317 414Q254 414 210 369Q166 324 166 255Z"  horiz-adv-x="634" vert-adv-y="1000"  />

      
      <glyph glyph-name="unif7" unicode="&#xf7;" d="M235 437L235 545L350 545L350 437L235 437M32 236L32 335L554 335L554 236L32 236M235 27L235 135L350 135L350 27L235 27Z"  horiz-adv-x="586" vert-adv-y="1000"  />

      
      <glyph glyph-name="unif8" unicode="&#xf8;" d="M95-4L133 50Q37 126 37 255Q37 371 118 446.50Q199 522 317 522Q388 522 450 491L491 547L546 509L506 455Q598 378 598 255Q598 139 517 63.50Q436-12 317-12Q248-12 191 15L150-43L95-4M204 149L384 398Q352 414 317 414Q254 414 210 369Q166 324 166 255Q166 192 204 149M258 108Q285 96 317 96Q381 96 425 140.50Q469 185 469 255Q469 312 435 354L258 108Z"  horiz-adv-x="635" vert-adv-y="1000"  />

      
      <glyph glyph-name="unif9" unicode="&#xf9;" d="M63 182L63 510L190 510L190 208Q190 157 207.50 130.50Q225 104 269 104Q335 104 373.50 154Q412 204 412 276L412 510L538 510L538 0L416 0L416 60L419 95L417 95Q397 52 349 20Q301-12 240-12Q63-12 63 182M252 574L148 710L279 710L355 574L252 574Z"  horiz-adv-x="607" vert-adv-y="1000"  />

      
      <glyph glyph-name="unifa" unicode="&#xfa;" d="M245 574L321 710L452 710L347 574L245 574M63 182L63 510L190 510L190 208Q190 157 207.50 130.50Q225 104 269 104Q335 104 373.50 154Q412 204 412 276L412 510L538 510L538 0L416 0L416 60L419 95L417 95Q397 52 349 20Q301-12 240-12Q63-12 63 182Z"  horiz-adv-x="607" vert-adv-y="1000"  />

      
      <glyph glyph-name="unifb" unicode="&#xfb;" d="M144 574L236 710L363 710L456 574L351 574L301 655L299 655L249 574L144 574M63 182L63 510L190 510L190 208Q190 157 207.50 130.50Q225 104 269 104Q335 104 373.50 154Q412 204 412 276L412 510L538 510L538 0L416 0L416 60L419 95L417 95Q397 52 349 20Q301-12 240-12Q63-12 63 182Z"  horiz-adv-x="607" vert-adv-y="1000"  />

      
      <glyph glyph-name="unifc" unicode="&#xfc;" d="M344 594L344 710L441 710L441 594L344 594M160 594L160 710L258 710L258 594L160 594M63 182L63 510L190 510L190 208Q190 157 207.50 130.50Q225 104 269 104Q335 104 373.50 154Q412 204 412 276L412 510L538 510L538 0L416 0L416 60L419 95L417 95Q397 52 349 20Q301-12 240-12Q63-12 63 182Z"  horiz-adv-x="607" vert-adv-y="1000"  />

      
      <glyph glyph-name="unifd" unicode="&#xfd;" d="M55-82Q83-103 111-103Q172-103 200-37L219 8L4 510L147 510L254 216L273 147L275 147Q284 187 292 214L392 510L530 510L303-77Q278-144 228.50-177Q179-210 119-210Q92-210 65.50-202Q39-194 26-186L13-177L55-82M219 573L295 709L426 709L321 573L219 573Z"  horiz-adv-x="545" vert-adv-y="1000"  />

      
      <glyph glyph-name="unife" unicode="&#xfe;" d="M68-200L68 710L195 710L195 492L193 450L195 450Q245 522 345 522Q448 522 511 446.50Q574 371 574 255Q574 139 509.50 63.50Q445-12 343-12Q299-12 258.50 5.50Q218 23 195 57L193 57Q195 39 195 13L195-200L68-200M191 254Q191 180 226 137.50Q261 95 320 95Q375 95 410.50 140Q446 185 446 255Q446 325 411.50 369.50Q377 414 322 414Q264 414 227.50 375Q191 336 191 254Z"  horiz-adv-x="612" vert-adv-y="1000"  />

      
      <glyph glyph-name="uniff" unicode="&#xff;" d="M55-82Q83-103 111-103Q172-103 200-37L219 8L4 510L147 510L254 216L273 147L275 147Q284 187 292 214L392 510L530 510L303-77Q278-144 228.50-177Q179-210 119-210Q92-210 65.50-202Q39-194 26-186L13-177L55-82M317 593L317 709L414 709L414 593L317 593M133 593L133 709L231 709L231 593L133 593Z"  horiz-adv-x="545" vert-adv-y="1000"  />

      
      <glyph glyph-name="uni0100" unicode="&#x0100;" d="M8 0L257 710L393 710L642 0L510 0L449 182L200 182L140 0L8 0M232 287L417 287L354 477L326 587L324 587Q308 517 296 477L232 287M194 783L194 870L456 870L456 783L194 783Z"  horiz-adv-x="650" vert-adv-y="1000"  />

      
      <glyph glyph-name="uni0101" unicode="&#x0101;" d="M29 141Q29 195 58.50 233Q88 271 136.50 288.50Q185 306 230.50 313Q276 320 326 320L348 320L348 327Q348 417 252 417Q182 417 110 368L63 459Q96 485 152 503.50Q208 522 263 522Q363 522 419 468.50Q475 415 475 319L475 0L357 0L357 43L360 80L358 80Q334 39 291 13.50Q248-12 197-12Q126-12 77.50 30.50Q29 73 29 141M155 152Q155 125 175.50 105Q196 85 232 85Q283 85 316 127Q349 169 349 219L349 233L327 233Q155 233 155 152M136 600L136 687L398 687L398 600L136 600Z"  horiz-adv-x="537" vert-adv-y="1000"  />

      
      <glyph glyph-name="uni0102" unicode="&#x0102;" d="M8 0L257 710L393 710L642 0L510 0L449 182L200 182L140 0L8 0M232 287L417 287L354 477L326 587L324 587Q308 517 296 477L232 287M325 753Q262 753 219 787Q176 821 176 881L176 893L266 893L266 881Q266 852 283 837Q300 822 325 822Q348 822 365.50 837.50Q383 853 383 882L383 893L473 893L473 881Q473 821 430 787Q387 753 325 753Z"  horiz-adv-x="650" vert-adv-y="1000"  />

      
      <glyph glyph-name="uni0103" unicode="&#x0103;" d="M29 141Q29 195 58.50 233Q88 271 136.50 288.50Q185 306 230.50 313Q276 320 326 320L348 320L348 327Q348 417 252 417Q182 417 110 368L63 459Q96 485 152 503.50Q208 522 263 522Q363 522 419 468.50Q475 415 475 319L475 0L357 0L357 43L360 80L358 80Q334 39 291 13.50Q248-12 197-12Q126-12 77.50 30.50Q29 73 29 141M155 152Q155 125 175.50 105Q196 85 232 85Q283 85 316 127Q349 169 349 219L349 233L327 233Q155 233 155 152M266 570Q203 570 160 604Q117 638 117 698L117 710L207 710L207 698Q207 669 224 654Q241 639 266 639Q289 639 306.50 654.50Q324 670 324 699L324 710L414 710L414 698Q414 638 371 604Q328 570 266 570Z"  horiz-adv-x="537" vert-adv-y="1000"  />

      
      <glyph glyph-name="uni0104" unicode="&#x0104;" d="M8 0L257 710L393 710L642 0Q586-47 586-78Q586-92 598-101Q610-110 622-112L635-114L604-208Q599-208 591-206.50Q583-205 562-198.50Q541-192 524.50-182.50Q508-173 495-154.50Q482-136 482-112Q482-52 547 0L510 0L449 182L200 182L140 0L8 0M232 287L417 287L354 477L326 587L324 587Q308 517 296 477L232 287Z"  horiz-adv-x="650" vert-adv-y="1000"  />

      
      <glyph glyph-name="uni0105" unicode="&#x0105;" d="M29 141Q29 195 58.50 233Q88 271 136.50 288.50Q185 306 230.50 313Q276 320 326 320L348 320L348 327Q348 417 252 417Q182 417 110 368L63 459Q96 485 152 503.50Q208 522 263 522Q363 522 419 468.50Q475 415 475 319L475 0Q418-46 418-78Q418-92 430-101Q442-110 454-112L467-114L437-208Q432-208 423.50-206.50Q415-205 394-198.50Q373-192 357-182.50Q341-173 327.50-154.50Q314-136 314-112Q314-53 381 0L357 0L357 43L360 80L358 80Q334 39 291 13.50Q248-12 197-12Q126-12 77.50 30.50Q29 73 29 141M155 152Q155 125 175.50 105Q196 85 232 85Q283 85 316 127Q349 169 349 219L349 233L327 233Q155 233 155 152Z"  horiz-adv-x="537" vert-adv-y="1000"  />

      
      <glyph glyph-name="uni0106" unicode="&#x0106;" d="M347 757L423 893L554 893L449 757L347 757M45 358Q45 514 148 618Q251 722 410 722Q572 722 672 625L610 529Q571 562 518.50 583Q466 604 416 604Q304 604 241 534Q178 464 178 360Q178 255 242 180.50Q306 106 417 106Q531 106 623 196L691 103Q578-12 412-12Q247-12 146 93Q45 198 45 358Z"  horiz-adv-x="716" vert-adv-y="1000"  />

      
      <glyph glyph-name="uni0107" unicode="&#x0107;" d="M239 574L315 710L446 710L341 574L239 574M37 255Q37 367 113.50 444.50Q190 522 314 522Q369 522 422 503Q475 484 510 446L453 359Q398 414 321 414Q252 414 209 368.50Q166 323 166 256Q166 189 210 142.50Q254 96 325 96Q408 96 475 161L524 71Q488 33 431.50 10.50Q375-12 314-12Q190-12 113.50 64.50Q37 141 37 255Z"  horiz-adv-x="548" vert-adv-y="1000"  />

      
      <glyph glyph-name="uni0108" unicode="&#x0108;" d="M246 757L338 893L465 893L558 757L453 757L403 838L401 838L351 757L246 757M45 358Q45 514 148 618Q251 722 410 722Q572 722 672 625L610 529Q571 562 518.50 583Q466 604 416 604Q304 604 241 534Q178 464 178 360Q178 255 242 180.50Q306 106 417 106Q531 106 623 196L691 103Q578-12 412-12Q247-12 146 93Q45 198 45 358Z"  horiz-adv-x="716" vert-adv-y="1000"  />

      
      <glyph glyph-name="uni0109" unicode="&#x0109;" d="M138 574L230 710L357 710L450 574L345 574L295 655L293 655L243 574L138 574M37 255Q37 367 113.50 444.50Q190 522 314 522Q369 522 422 503Q475 484 510 446L453 359Q398 414 321 414Q252 414 209 368.50Q166 323 166 256Q166 189 210 142.50Q254 96 325 96Q408 96 475 161L524 71Q488 33 431.50 10.50Q375-12 314-12Q190-12 113.50 64.50Q37 141 37 255Z"  horiz-adv-x="548" vert-adv-y="1000"  />

      
      <glyph glyph-name="uni010A" unicode="&#x010A;" d="M45 358Q45 514 148 618Q251 722 410 722Q572 722 672 625L610 529Q571 562 518.50 583Q466 604 416 604Q304 604 241 534Q178 464 178 360Q178 255 242 180.50Q306 106 417 106Q531 106 623 196L691 103Q578-12 412-12Q247-12 146 93Q45 198 45 358M348 782L348 893L456 893L456 782L348 782Z"  horiz-adv-x="716" vert-adv-y="1000"  />

      
      <glyph glyph-name="uni010B" unicode="&#x010B;" d="M37 255Q37 367 113.50 444.50Q190 522 314 522Q369 522 422 503Q475 484 510 446L453 359Q398 414 321 414Q252 414 209 368.50Q166 323 166 256Q166 189 210 142.50Q254 96 325 96Q408 96 475 161L524 71Q488 33 431.50 10.50Q375-12 314-12Q190-12 113.50 64.50Q37 141 37 255M241 599L241 710L349 710L349 599L241 599Z"  horiz-adv-x="548" vert-adv-y="1000"  />

      
      <glyph glyph-name="uni010C" unicode="&#x010C;" d="M338 757L246 893L351 893L401 812L403 812L453 893L558 893L465 757L338 757M45 358Q45 514 148 618Q251 722 410 722Q572 722 672 625L610 529Q571 562 518.50 583Q466 604 416 604Q304 604 241 534Q178 464 178 360Q178 255 242 180.50Q306 106 417 106Q531 106 623 196L691 103Q578-12 412-12Q247-12 146 93Q45 198 45 358Z"  horiz-adv-x="716" vert-adv-y="1000"  />

      
      <glyph glyph-name="uni010D" unicode="&#x010D;" d="M230 574L138 710L243 710L293 629L295 629L345 710L450 710L357 574L230 574M37 255Q37 367 113.50 444.50Q190 522 314 522Q369 522 422 503Q475 484 510 446L453 359Q398 414 321 414Q252 414 209 368.50Q166 323 166 256Q166 189 210 142.50Q254 96 325 96Q408 96 475 161L524 71Q488 33 431.50 10.50Q375-12 314-12Q190-12 113.50 64.50Q37 141 37 255Z"  horiz-adv-x="548" vert-adv-y="1000"  />

      
      <glyph glyph-name="uni010E" unicode="&#x010E;" d="M278 757L186 893L291 893L341 812L343 812L393 893L498 893L405 757L278 757M86 0L86 710L328 710Q494 710 592 616Q690 522 690 356Q690 190 592 95Q494 0 328 0L86 0M215 111L321 111Q431 111 494 174.50Q557 238 557 356Q557 472 493.50 535.50Q430 599 321 599L215 599L215 111Z"  horiz-adv-x="737" vert-adv-y="1000"  />

      
      <glyph glyph-name="uni010F" unicode="&#x010F;" d="M598 709L703 709Q710 681 710 655Q710 612 684 558L590 558Q610 611 610 645Q610 677 598 709M39 255Q39 375 103.50 448.50Q168 522 270 522Q371 522 419 455L421 455Q419 468 419 485L419 710L545 710L545 0L426 0L426 44L428 76L426 76Q403 36 360.50 12Q318-12 265-12Q163-12 101 62Q39 136 39 255M167 255Q167 183 202 139Q237 95 294 95Q348 95 385 135.50Q422 176 422 256Q422 320 389 366.50Q356 413 295 413Q241 413 204 370.50Q167 328 167 255Z"  horiz-adv-x="627" vert-adv-y="1000"  />

      
      <glyph glyph-name="uni0110" unicode="&#x0110;" d="M92 0L92 301L34 301L34 406L92 406L92 710L334 710Q500 710 598 616Q696 522 696 356Q696 190 598 95Q500 0 334 0L92 0M220 111L327 111Q437 111 500 174.50Q563 238 563 356Q563 472 499.50 535.50Q436 599 327 599L220 599L220 406L352 406L352 301L220 301L220 111Z"  horiz-adv-x="743" vert-adv-y="1000"  />

      
      <glyph glyph-name="uni0111" unicode="&#x0111;" d="M39 255Q39 375 103.50 448.50Q168 522 270 522Q314 522 354.50 505.50Q395 489 418 457L420 457Q419 470 419 486L419 559L290 559L290 635L419 635L419 710L545 710L545 635L617 635L617 559L545 559L545 0L426 0L426 42L427 75L425 75Q373-12 265-12Q163-12 101 62Q39 136 39 255M167 255Q167 183 202 139Q237 95 294 95Q348 95 385 135.50Q422 176 422 256Q422 320 389 366.50Q356 413 295 413Q241 413 204 370.50Q167 328 167 255Z"  horiz-adv-x="614" vert-adv-y="1000"  />

      
      <glyph glyph-name="uni0112" unicode="&#x0112;" d="M86 0L86 710L511 710L511 599L215 599L215 413L454 413L454 302L215 302L215 111L527 111L527 0L86 0M178 783L178 870L440 870L440 783L178 783Z"  horiz-adv-x="568" vert-adv-y="1000"  />

      
      <glyph glyph-name="uni0113" unicode="&#x0113;" d="M37 255Q37 373 109.50 447.50Q182 522 297 522Q403 522 463 453.50Q523 385 523 280Q523 263 519 231L168 231Q174 167 217 131.50Q260 96 321 96Q397 96 467 152L517 61Q479 27 423.50 7.50Q368-12 312-12Q189-12 113 65.50Q37 143 37 255M171 318L396 318Q395 368 366.50 397Q338 426 294 426Q246 426 213 396.50Q180 367 171 318M164 600L164 687L426 687L426 600L164 600Z"  horiz-adv-x="561" vert-adv-y="1000"  />

      
      <glyph glyph-name="uni0114" unicode="&#x0114;" d="M86 0L86 710L511 710L511 599L215 599L215 413L454 413L454 302L215 302L215 111L527 111L527 0L86 0M308 753Q245 753 202 787Q159 821 159 881L159 893L249 893L249 881Q249 852 266 837Q283 822 308 822Q331 822 348.50 837.50Q366 853 366 882L366 893L456 893L456 881Q456 821 413 787Q370 753 308 753Z"  horiz-adv-x="568" vert-adv-y="1000"  />

      
      <glyph glyph-name="uni0115" unicode="&#x0115;" d="M37 255Q37 373 109.50 447.50Q182 522 297 522Q403 522 463 453.50Q523 385 523 280Q523 263 519 231L168 231Q174 167 217 131.50Q260 96 321 96Q397 96 467 152L517 61Q479 27 423.50 7.50Q368-12 312-12Q189-12 113 65.50Q37 143 37 255M171 318L396 318Q395 368 366.50 397Q338 426 294 426Q246 426 213 396.50Q180 367 171 318M294 570Q231 570 188 604Q145 638 145 698L145 710L235 710L235 698Q235 669 252 654Q269 639 294 639Q317 639 334.50 654.50Q352 670 352 699L352 710L442 710L442 698Q442 638 399 604Q356 570 294 570Z"  horiz-adv-x="561" vert-adv-y="1000"  />

      
      <glyph glyph-name="uni0116" unicode="&#x0116;" d="M86 0L86 710L511 710L511 599L215 599L215 413L454 413L454 302L215 302L215 111L527 111L527 0L86 0M254 782L254 893L362 893L362 782L254 782Z"  horiz-adv-x="568" vert-adv-y="1000"  />

      
      <glyph glyph-name="uni0117" unicode="&#x0117;" d="M37 255Q37 373 109.50 447.50Q182 522 297 522Q403 522 463 453.50Q523 385 523 280Q523 263 519 231L168 231Q174 167 217 131.50Q260 96 321 96Q397 96 467 152L517 61Q479 27 423.50 7.50Q368-12 312-12Q189-12 113 65.50Q37 143 37 255M171 318L396 318Q395 368 366.50 397Q338 426 294 426Q246 426 213 396.50Q180 367 171 318M240 599L240 710L348 710L348 599L240 599Z"  horiz-adv-x="561" vert-adv-y="1000"  />

      
      <glyph glyph-name="uni0118" unicode="&#x0118;" d="M86 0L86 710L511 710L511 599L215 599L215 413L454 413L454 302L215 302L215 111L527 111L527 0Q471-47 471-78Q471-92 483.50-101Q496-110 508-112L520-114L489-208Q484-208 476-206.50Q468-205 447-198.50Q426-192 409.50-182.50Q393-173 380-154.50Q367-136 367-112Q367-52 437 0L86 0Z"  horiz-adv-x="568" vert-adv-y="1000"  />

      
      <glyph glyph-name="uni0119" unicode="&#x0119;" d="M37 255Q37 373 109.50 447.50Q182 522 297 522Q403 522 463 453.50Q523 385 523 280L519 231L168 231Q174 167 217 131.50Q260 96 321 96Q397 96 467 152L516 62Q507 53 471.50 26.50Q436 0 414.50-25Q393-50 393-78Q393-92 405-101Q417-110 429-112L441-114L411-208Q406-208 397.50-206.50Q389-205 368-198.50Q347-192 331-182.50Q315-173 301.50-154.50Q288-136 288-112Q288-58 351-8Q327-12 312-12Q189-12 113 65.50Q37 143 37 255M171 318L396 318Q395 367 367 396.50Q339 426 294 426Q246 426 213 396Q180 366 171 318Z"  horiz-adv-x="561" vert-adv-y="1000"  />

      
      <glyph glyph-name="uni011A" unicode="&#x011A;" d="M244 757L152 893L257 893L307 812L309 812L359 893L464 893L371 757L244 757M86 0L86 710L511 710L511 599L215 599L215 413L454 413L454 302L215 302L215 111L527 111L527 0L86 0Z"  horiz-adv-x="568" vert-adv-y="1000"  />

      
      <glyph glyph-name="uni011B" unicode="&#x011B;" d="M230 574L138 710L243 710L293 629L295 629L345 710L450 710L357 574L230 574M37 255Q37 373 109.50 447.50Q182 522 297 522Q403 522 463 453.50Q523 385 523 280Q523 263 519 231L168 231Q174 167 217 131.50Q260 96 321 96Q397 96 467 152L517 61Q479 27 423.50 7.50Q368-12 312-12Q189-12 113 65.50Q37 143 37 255M171 318L396 318Q395 368 366.50 397Q338 426 294 426Q246 426 213 396.50Q180 367 171 318Z"  horiz-adv-x="561" vert-adv-y="1000"  />

      
      <glyph glyph-name="uni011C" unicode="&#x011C;" d="M244 757L336 893L463 893L556 757L451 757L401 838L399 838L349 757L244 757M45 356Q45 511 149.50 616.50Q254 722 411 722Q571 722 675 632L611 536Q578 566 525 585Q472 604 422 604Q307 604 242.50 534Q178 464 178 360Q178 247 246 176.50Q314 106 416 106Q517 106 594 180L594 263L485 263L485 374L710 374L710 0L600 0L600 34L601 64L599 64Q564 30 508.50 9Q453-12 393-12Q248-12 146.50 90.50Q45 193 45 356Z"  horiz-adv-x="766" vert-adv-y="1000"  />

      
      <glyph glyph-name="uni011D" unicode="&#x011D;" d="M139 574L231 710L358 710L451 574L346 574L296 655L294 655L244 574L139 574M126-69Q194-102 267-102Q331-102 371-72Q411-42 411 22L411 54L413 81L411 81Q364 10 268 10Q162 10 101 84Q40 158 40 268Q40 378 99.50 450Q159 522 265 522Q369 522 417 455L420 455Q418 461 418 469L418 510L538 510L538 31Q538-32 515-80Q492-128 453-155.50Q414-183 367.50-196.50Q321-210 269-210Q172-210 87-166L126-69M168 272Q168 203 201.50 160Q235 117 296 117Q347 117 380.50 152Q414 187 414 267Q414 414 288 414Q231 414 199.50 375.50Q168 337 168 272Z"  horiz-adv-x="606" vert-adv-y="1000"  />

      
      <glyph glyph-name="uni011E" unicode="&#x011E;" d="M45 356Q45 511 149.50 616.50Q254 722 411 722Q571 722 675 632L611 536Q578 566 525 585Q472 604 422 604Q307 604 242.50 534Q178 464 178 360Q178 247 246 176.50Q314 106 416 106Q517 106 594 180L594 263L485 263L485 374L710 374L710 0L600 0L600 34L601 64L599 64Q564 30 508.50 9Q453-12 393-12Q248-12 146.50 90.50Q45 193 45 356M401 753Q338 753 295 787Q252 821 252 881L252 893L342 893L342 881Q342 852 359 837Q376 822 401 822Q424 822 441.50 837.50Q459 853 459 882L459 893L549 893L549 881Q549 821 506 787Q463 753 401 753Z"  horiz-adv-x="766" vert-adv-y="1000"  />

      
      <glyph glyph-name="uni011F" unicode="&#x011F;" d="M126-69Q194-102 267-102Q331-102 371-72Q411-42 411 22L411 54L413 81L411 81Q364 10 268 10Q162 10 101 84Q40 158 40 268Q40 378 99.50 450Q159 522 265 522Q369 522 417 455L420 455Q418 461 418 469L418 510L538 510L538 31Q538-32 515-80Q492-128 453-155.50Q414-183 367.50-196.50Q321-210 269-210Q172-210 87-166L126-69M168 272Q168 203 201.50 160Q235 117 296 117Q347 117 380.50 152Q414 187 414 267Q414 414 288 414Q231 414 199.50 375.50Q168 337 168 272M295 570Q232 570 189 604Q146 638 146 698L146 710L236 710L236 698Q236 669 253 654Q270 639 295 639Q318 639 335.50 654.50Q353 670 353 699L353 710L443 710L443 698Q443 638 400 604Q357 570 295 570Z"  horiz-adv-x="606" vert-adv-y="1000"  />

      
      <glyph glyph-name="uni0120" unicode="&#x0120;" d="M45 356Q45 511 149.50 616.50Q254 722 411 722Q571 722 675 632L611 536Q578 566 525 585Q472 604 422 604Q307 604 242.50 534Q178 464 178 360Q178 247 246 176.50Q314 106 416 106Q517 106 594 180L594 263L485 263L485 374L710 374L710 0L600 0L600 34L601 64L599 64Q564 30 508.50 9Q453-12 393-12Q248-12 146.50 90.50Q45 193 45 356M347 782L347 893L455 893L455 782L347 782Z"  horiz-adv-x="766" vert-adv-y="1000"  />

      
      <glyph glyph-name="uni0121" unicode="&#x0121;" d="M126-69Q194-102 267-102Q331-102 371-72Q411-42 411 22L411 54L413 81L411 81Q364 10 268 10Q162 10 101 84Q40 158 40 268Q40 378 99.50 450Q159 522 265 522Q369 522 417 455L420 455Q418 461 418 469L418 510L538 510L538 31Q538-32 515-80Q492-128 453-155.50Q414-183 367.50-196.50Q321-210 269-210Q172-210 87-166L126-69M168 272Q168 203 201.50 160Q235 117 296 117Q347 117 380.50 152Q414 187 414 267Q414 414 288 414Q231 414 199.50 375.50Q168 337 168 272M241 599L241 710L349 710L349 599L241 599Z"  horiz-adv-x="606" vert-adv-y="1000"  />

      
      <glyph glyph-name="uni0122" unicode="&#x0122;" d="M338-55L443-55Q450-83 450-109Q450-152 424-206L330-206Q350-153 350-119Q350-87 338-55M45 356Q45 511 149.50 616.50Q254 722 411 722Q571 722 675 632L611 536Q578 566 525 585Q472 604 422 604Q307 604 242.50 534Q178 464 178 360Q178 247 246 176.50Q314 106 416 106Q517 106 594 180L594 263L485 263L485 374L710 374L710 0L600 0L600 34L601 64L599 64Q564 30 508.50 9Q453-12 393-12Q248-12 146.50 90.50Q45 193 45 356Z"  horiz-adv-x="766" vert-adv-y="1000"  />

      
      <glyph glyph-name="uni0123" unicode="&#x0123;" d="M350 562L245 562Q238 589 238 614Q238 657 264 709L357 709Q338 655 338 624Q338 593 350 562M126-69Q194-102 267-102Q331-102 371-72Q411-42 411 22L411 54L413 81L411 81Q364 10 268 10Q162 10 101 84Q40 158 40 268Q40 378 99.50 450Q159 522 265 522Q369 522 417 455L420 455Q418 461 418 469L418 510L538 510L538 31Q538-32 515-80Q492-128 453-155.50Q414-183 367.50-196.50Q321-210 269-210Q172-210 87-166L126-69M168 272Q168 203 201.50 160Q235 117 296 117Q347 117 380.50 152Q414 187 414 267Q414 414 288 414Q231 414 199.50 375.50Q168 337 168 272Z"  horiz-adv-x="606" vert-adv-y="1000"  />

      
      <glyph glyph-name="uni0124" unicode="&#x0124;" d="M221 757L313 893L440 893L533 757L428 757L378 838L376 838L326 757L221 757M86 0L86 710L215 710L215 409L540 409L540 710L668 710L668 0L540 0L540 298L215 298L215 0L86 0Z"  horiz-adv-x="754" vert-adv-y="1000"  />

      
      <glyph glyph-name="uni0125" unicode="&#x0125;" d="M-23 757L69 893L196 893L289 757L184 757L134 838L132 838L82 757L-23 757M68 0L68 710L195 710L195 462L192 419L194 419Q215 460 262.50 491Q310 522 371 522Q549 522 549 328L549 0L422 0L422 302Q422 353 404.50 379.50Q387 406 342 406Q276 406 235.50 358.50Q195 311 195 237L195 0L68 0Z"  horiz-adv-x="612" vert-adv-y="1000"  />

      
      <glyph glyph-name="uni0126" unicode="&#x0126;" d="M93 0L93 515L27 515L27 598L93 598L93 710L224 710L224 598L537 598L537 710L668 710L668 598L733 598L733 515L668 515L668 0L537 0L537 298L224 298L224 0L93 0M224 409L537 409L537 515L224 515L224 409Z"  horiz-adv-x="761" vert-adv-y="1000"  />

      
      <glyph glyph-name="uni0127" unicode="&#x0127;" d="M68 0L68 559L2 559L2 635L68 635L68 710L195 710L195 635L329 635L329 559L195 559L195 464L193 421L195 421Q216 462 263 492Q310 522 371 522Q549 522 549 328L549 0L422 0L422 302Q422 353 404.50 379.50Q387 406 342 406Q275 406 235 357.50Q195 309 195 239L195 0L68 0Z"  horiz-adv-x="612" vert-adv-y="1000"  />

      
      <glyph glyph-name="uni0128" unicode="&#x0128;" d="M86 0L86 710L215 710L215 0L86 0M-30 758Q-30 895 82 895Q111 895 133.50 878.50Q156 862 174 846Q192 830 208 830Q247 830 247 892L333 892Q333 755 221 755Q192 755 169.50 771.50Q147 788 129 804Q111 820 95 820Q57 820 57 758L-30 758Z"  horiz-adv-x="301" vert-adv-y="1000"  />

      
      <glyph glyph-name="uni0129" unicode="&#x0129;" d="M68 0L68 510L195 510L195 0L68 0M-49 575Q-49 712 63 712Q86 712 105.50 702Q125 692 136 679.50Q147 667 161.50 657Q176 647 189 647Q228 647 228 709L314 709Q314 572 202 572Q179 572 159.50 582Q140 592 129 604.50Q118 617 103.50 627Q89 637 76 637Q38 637 38 575L-49 575Z"  horiz-adv-x="263" vert-adv-y="1000"  />

      
      <glyph glyph-name="uni012A" unicode="&#x012A;" d="M86 0L86 710L215 710L215 0L86 0M21 783L21 870L283 870L283 783L21 783Z"  horiz-adv-x="301" vert-adv-y="1000"  />

      
      <glyph glyph-name="uni012B" unicode="&#x012B;" d="M68 0L68 510L195 510L195 0L68 0M2 600L2 687L264 687L264 600L2 600Z"  horiz-adv-x="263" vert-adv-y="1000"  />

      
      <glyph glyph-name="uni012C" unicode="&#x012C;" d="M86 0L86 710L215 710L215 0L86 0M152 753Q89 753 46 787Q3 821 3 881L3 893L93 893L93 881Q93 852 110 837Q127 822 152 822Q175 822 192.50 837.50Q210 853 210 882L210 893L300 893L300 881Q300 821 257 787Q214 753 152 753Z"  horiz-adv-x="301" vert-adv-y="1000"  />

      
      <glyph glyph-name="uni012D" unicode="&#x012D;" d="M68 0L68 510L195 510L195 0L68 0M133 570Q70 570 27 604Q-16 638-16 698L-16 710L74 710L74 698Q74 669 91 654Q108 639 133 639Q156 639 173.50 654.50Q191 670 191 699L191 710L281 710L281 698Q281 638 238 604Q195 570 133 570Z"  horiz-adv-x="263" vert-adv-y="1000"  />

      
      <glyph glyph-name="uni012E" unicode="&#x012E;" d="M86 0L86 710L215 710L215 0Q159-47 159-78Q159-92 171-101Q183-110 195-112L207-114L177-208Q172-208 163.50-206.50Q155-205 134-198.50Q113-192 97-182.50Q81-173 67.50-154.50Q54-136 54-112Q54-54 121 0L86 0Z"  horiz-adv-x="301" vert-adv-y="1000"  />

      
      <glyph glyph-name="uni012F" unicode="&#x012F;" d="M68 0L68 510L195 510L195 0Q139-47 139-78Q139-92 151.50-101Q164-110 176-112L188-114L158-208Q155-208 151-207.50Q147-207 134-204Q121-201 109.50-197Q98-193 83.50-185.50Q69-178 59-168.50Q49-159 42-144Q35-129 35-111Q35-55 102 0L68 0M68 597L68 710L195 710L195 597L68 597Z"  horiz-adv-x="264" vert-adv-y="1000"  />

      
      <glyph glyph-name="uni0130" unicode="&#x0130;" d="M86 0L86 710L215 710L215 0L86 0M98 782L98 893L206 893L206 782L98 782Z"  horiz-adv-x="301" vert-adv-y="1000"  />

      
      <glyph glyph-name="uni0131" unicode="&#x0131;" d="M68 0L68 510L195 510L195 0L68 0Z"  horiz-adv-x="263" vert-adv-y="1000"  />

      
      <glyph glyph-name="uni0132" unicode="&#x0132;" d="M297-4L297 113Q319 113 339.50 119Q360 125 381 139Q402 153 414.50 182Q427 211 427 252L427 710L558 710L558 250Q558 174 534.50 121Q511 68 470.50 42.50Q430 17 388.50 6.50Q347-4 297-4M86 0L86 710L215 710L215 0L86 0Z"  horiz-adv-x="637" vert-adv-y="1000"  />

      
      <glyph glyph-name="uni0133" unicode="&#x0133;" d="M68 597L68 710L195 710L195 597L68 597M68 0L68 510L195 510L195 0L68 0M331 597L331 710L458 710L458 597L331 597M331-5L331 510L458 510L458-15Q458-64 442-100.50Q426-137 403.50-156.50Q381-176 350-188Q319-200 294.50-203.50Q270-207 245-207Q226-207 207-204L207-97Q219-99 229-99Q246-99 261-95.50Q276-92 293-83.50Q310-75 320.50-54.50Q331-34 331-5Z"  horiz-adv-x="526" vert-adv-y="1000"  />

      
      <glyph glyph-name="uni0134" unicode="&#x0134;" d="M151 757L243 893L370 893L463 757L358 757L308 838L306 838L256 757L151 757M24 210L24 251L152 251L152 218Q152 170 175 138Q198 106 245 106Q286 106 312 132Q338 158 338 212L338 599L154 599L154 710L466 710L466 210Q466 101 400.50 44.50Q335-12 245-12Q154-12 89 45Q24 102 24 210Z"  horiz-adv-x="546" vert-adv-y="1000"  />

      
      <glyph glyph-name="uni0135" unicode="&#x0135;" d="M-20 573L72 710L189 710L281 573L182 573L132 655L130 655L79 573L-20 573M68-5L68 510L195 510L195-15Q195-64 179-100.50Q163-137 140.50-156.50Q118-176 87-188Q56-200 31.50-203.50Q7-207-18-207Q-36-207-56-204L-56-97Q-44-99-34-99Q-17-99-2-95.50Q13-92 30-83.50Q47-75 57.50-54.50Q68-34 68-5Z"  horiz-adv-x="263" vert-adv-y="1000"  />

      
      <glyph glyph-name="uni0136" unicode="&#x0136;" d="M272-55L377-55Q384-83 384-109Q384-152 358-206L264-206Q284-153 284-119Q284-87 272-55M86 0L86 710L215 710L215 421L307 421L474 710L614 710L413 372L413 370L626 0L480 0L307 310L215 310L215 0L86 0Z"  horiz-adv-x="638" vert-adv-y="1000"  />

      
      <glyph glyph-name="uni0137" unicode="&#x0137;" d="M230-55L335-55Q342-83 342-109Q342-152 316-206L222-206Q242-153 242-119Q242-87 230-55M68 0L68 710L195 710L195 330L258 330L381 510L522 510L361 282L361 280L542 0L396 0L261 223L195 223L195 0L68 0Z"  horiz-adv-x="549" vert-adv-y="1000"  />

      
      <glyph glyph-name="uni0138" unicode="&#x0138;" d="M68 0L68 510L195 510L195 318L257 318L386 510L528 510L361 271L361 269L535 0L386 0L260 211L195 211L195 0L68 0Z"  horiz-adv-x="547" vert-adv-y="1000"  />

      
      <glyph glyph-name="uni0139" unicode="&#x0139;" d="M97 757L173 893L304 893L199 757L97 757M86 0L86 710L215 710L215 111L522 111L522 0L86 0Z"  horiz-adv-x="536" vert-adv-y="1000"  />

      
      <glyph glyph-name="uni013A" unicode="&#x013A;" d="M78 757L154 893L285 893L180 757L78 757M68 159L68 710L194 710L194 178Q194 138 206.50 123Q219 108 246 108Q258 108 265 109L265-2Q238-5 225-5Q194-5 170 0.50Q146 6 121 21.50Q96 37 82 72Q68 107 68 159Z"  horiz-adv-x="288" vert-adv-y="1000"  />

      
      <glyph glyph-name="uni013B" unicode="&#x013B;" d="M254-55L359-55Q366-83 366-109Q366-152 340-206L246-206Q266-153 266-119Q266-87 254-55M86 0L86 710L215 710L215 111L522 111L522 0L86 0Z"  horiz-adv-x="536" vert-adv-y="1000"  />

      
      <glyph glyph-name="uni013C" unicode="&#x013C;" d="M114-55L219-55Q226-83 226-109Q226-152 200-206L106-206Q126-153 126-119Q126-87 114-55M68 159L68 710L194 710L194 178Q194 138 206.50 123Q219 108 246 108Q258 108 265 109L265-2Q238-5 225-5Q194-5 170 0.50Q146 6 121 21.50Q96 37 82 72Q68 107 68 159Z"  horiz-adv-x="288" vert-adv-y="1000"  />

      
      <glyph glyph-name="uni013D" unicode="&#x013D;" d="M294 709L399 709Q406 681 406 655Q406 612 380 558L286 558Q306 611 306 645Q306 677 294 709M86 0L86 710L215 710L215 111L522 111L522 0L86 0Z"  horiz-adv-x="537" vert-adv-y="1000"  />

      
      <glyph glyph-name="uni013E" unicode="&#x013E;" d="M248 709L353 709Q360 681 360 655Q360 612 334 558L240 558Q260 611 260 645Q260 677 248 709M68 159L68 710L194 710L194 178Q194 138 206.50 123Q219 108 246 108Q258 108 265 109L265-2Q238-5 225-5Q194-5 170 0.50Q146 6 121 21.50Q96 37 82 72Q68 107 68 159Z"  horiz-adv-x="301" vert-adv-y="1000"  />

      
      <glyph glyph-name="uni013F" unicode="&#x013F;" d="M86 0L86 710L215 710L215 111L522 111L522 0L86 0M322 321L322 449L445 449L445 321L322 321Z"  horiz-adv-x="538" vert-adv-y="1000"  />

      
      <glyph glyph-name="uni0140" unicode="&#x0140;" d="M68 159L68 710L194 710L194 178Q194 138 206.50 123Q219 108 246 108Q258 108 265 109L265-2Q238-5 225-5Q194-5 170 0.50Q146 6 121 21.50Q96 37 82 72Q68 107 68 159M270 321L270 449L393 449L393 321L270 321Z"  horiz-adv-x="403" vert-adv-y="1000"  />

      
      <glyph glyph-name="uni0141" unicode="&#x0141;" d="M91 0L91 263L34 231L34 355L91 387L91 710L219 710L219 461L325 522L325 398L219 337L219 111L526 111L526 0L91 0Z"  horiz-adv-x="541" vert-adv-y="1000"  />

      
      <glyph glyph-name="uni0142" unicode="&#x0142;" d="M17 244L17 368L81 404L81 710L207 710L207 477L285 522L285 398L207 353L207 178Q207 138 219.50 123Q232 108 259 108L278 109L278-2Q260-5 238-5Q207-5 183 0.50Q159 6 134 21.50Q109 37 95 72Q81 107 81 159L81 280L17 244Z"  horiz-adv-x="305" vert-adv-y="1000"  />

      
      <glyph glyph-name="uni0143" unicode="&#x0143;" d="M321 757L397 893L528 893L423 757L321 757M86 0L86 710L215 710L484 300Q496 281 510.50 253.50Q525 226 534 208L543 190L545 190Q538 258 538 300L538 710L666 710L666 0L538 0L269 409Q257 428 242.50 455.50Q228 483 219 501L210 519L208 519Q215 451 215 409L215 0L86 0Z"  horiz-adv-x="753" vert-adv-y="1000"  />

      
      <glyph glyph-name="uni0144" unicode="&#x0144;" d="M259 574L335 710L466 710L361 574L259 574M68 0L68 510L190 510L190 450L188 414L190 414Q210 455 256 488.50Q302 522 371 522Q549 522 549 328L549 0L422 0L422 302Q422 353 404.50 379.50Q387 406 342 406Q276 406 235.50 358Q195 310 195 239L195 0L68 0Z"  horiz-adv-x="612" vert-adv-y="1000"  />

      
      <glyph glyph-name="uni0145" unicode="&#x0145;" d="M321-55L426-55Q433-83 433-109Q433-152 407-206L313-206Q333-153 333-119Q333-87 321-55M86 0L86 710L215 710L484 300Q496 281 510.50 253.50Q525 226 534 208L543 190L545 190Q538 258 538 300L538 710L666 710L666 0L538 0L269 409Q257 428 242.50 455.50Q228 483 219 501L210 519L208 519Q215 451 215 409L215 0L86 0Z"  horiz-adv-x="753" vert-adv-y="1000"  />

      
      <glyph glyph-name="uni0146" unicode="&#x0146;" d="M251-55L356-55Q363-83 363-109Q363-152 337-206L243-206Q263-153 263-119Q263-87 251-55M68 0L68 510L190 510L190 450L188 414L190 414Q210 455 256 488.50Q302 522 371 522Q549 522 549 328L549 0L422 0L422 302Q422 353 404.50 379.50Q387 406 342 406Q276 406 235.50 358Q195 310 195 239L195 0L68 0Z"  horiz-adv-x="612" vert-adv-y="1000"  />

      
      <glyph glyph-name="uni0147" unicode="&#x0147;" d="M312 757L220 893L325 893L375 812L377 812L427 893L532 893L439 757L312 757M86 0L86 710L215 710L484 300Q496 281 510.50 253.50Q525 226 534 208L543 190L545 190Q538 258 538 300L538 710L666 710L666 0L538 0L269 409Q257 428 242.50 455.50Q228 483 219 501L210 519L208 519Q215 451 215 409L215 0L86 0Z"  horiz-adv-x="753" vert-adv-y="1000"  />

      
      <glyph glyph-name="uni0148" unicode="&#x0148;" d="M250 574L158 710L263 710L313 629L315 629L365 710L470 710L377 574L250 574M68 0L68 510L190 510L190 450L188 414L190 414Q210 455 256 488.50Q302 522 371 522Q549 522 549 328L549 0L422 0L422 302Q422 353 404.50 379.50Q387 406 342 406Q276 406 235.50 358Q195 310 195 239L195 0L68 0Z"  horiz-adv-x="612" vert-adv-y="1000"  />

      
      <glyph glyph-name="uni0149" unicode="&#x0149;" d="M-12 709L93 709Q100 681 100 655Q100 612 74 558L-20 558Q0 611 0 645Q0 677-12 709M68 0L68 510L190 510L190 450L188 414L190 414Q210 455 256 488.50Q302 522 371 522Q549 522 549 328L549 0L422 0L422 302Q422 353 404.50 379.50Q387 406 342 406Q276 406 235.50 358Q195 310 195 239L195 0L68 0Z"  horiz-adv-x="612" vert-adv-y="1000"  />

      
      <glyph glyph-name="uni014A" unicode="&#x014A;" d="M86 0L86 710L215 710L484 300Q496 281 510.50 253.50Q525 226 534 208L543 190L545 190Q538 258 538 300L538 710L666 710L666 43Q666-28 643-79.50Q620-131 581-157Q542-183 500-194Q458-205 409-205L409-88Q449-88 488-63.50Q527-39 533 8L269 409Q257 428 242.50 455.50Q228 483 219 501L210 519L208 519Q215 451 215 409L215 0L86 0Z"  horiz-adv-x="752" vert-adv-y="1000"  />

      
      <glyph glyph-name="uni014B" unicode="&#x014B;" d="M68 0L68 510L190 510L190 438L189 416L191 416Q212 458 257 490Q302 522 371 522Q549 522 549 328L549-17Q549-66 533-102.50Q517-139 494.50-158.50Q472-178 441-190Q410-202 385.50-205.50Q361-209 336-209L297-206L297-99Q306-100 319-100Q422-100 422-7L422 302Q422 353 404.50 379.50Q387 406 342 406Q275 406 235 357.50Q195 309 195 239L195 0L68 0Z"  horiz-adv-x="612" vert-adv-y="1000"  />

      
      <glyph glyph-name="uni014C" unicode="&#x014C;" d="M280 783L280 870L542 870L542 783L280 783M44 360Q44 514 147.50 618Q251 722 411 722Q571 722 674.50 618Q778 514 778 360Q778 202 674.50 95Q571-12 411-12Q251-12 147.50 95Q44 202 44 360M177 360Q177 251 243.50 178.50Q310 106 411 106Q512 106 578.50 178.50Q645 251 645 360Q645 464 578.50 534Q512 604 411 604Q310 604 243.50 534Q177 464 177 360Z"  horiz-adv-x="822" vert-adv-y="1000"  />

      
      <glyph glyph-name="uni014D" unicode="&#x014D;" d="M186 600L186 687L448 687L448 600L186 600M118 63.50Q118 63.50 77.50 101.25Q37 139 37 255Q37 371 118 446.50Q199 522 316 522Q434 522 515.50 446.50Q597 371 597 255Q597 139 516 63.50Q435-12 317-12Q199-12 118 63.50M166 255Q166 185 209.50 140.50Q253 96 317 96Q381 96 425 140.50Q469 185 469 255Q469 324 424.50 369Q380 414 317 414Q254 414 210 369Q166 324 166 255Z"  horiz-adv-x="634" vert-adv-y="1000"  />

      
      <glyph glyph-name="uni014E" unicode="&#x014E;" d="M44 360Q44 514 147.50 618Q251 722 411 722Q571 722 674.50 618Q778 514 778 360Q778 202 674.50 95Q571-12 411-12Q251-12 147.50 95Q44 202 44 360M177 360Q177 251 243.50 178.50Q310 106 411 106Q512 106 578.50 178.50Q645 251 645 360Q645 464 578.50 534Q512 604 411 604Q310 604 243.50 534Q177 464 177 360M411 753Q348 753 305 787Q262 821 262 881L262 893L352 893L352 881Q352 852 369 837Q386 822 411 822Q434 822 451.50 837.50Q469 853 469 882L469 893L559 893L559 881Q559 821 516 787Q473 753 411 753Z"  horiz-adv-x="822" vert-adv-y="1000"  />

      
      <glyph glyph-name="uni014F" unicode="&#x014F;" d="M118 63.50Q118 63.50 77.50 101.25Q37 139 37 255Q37 371 118 446.50Q199 522 316 522Q434 522 515.50 446.50Q597 371 597 255Q597 139 516 63.50Q435-12 317-12Q199-12 118 63.50M166 255Q166 185 209.50 140.50Q253 96 317 96Q381 96 425 140.50Q469 185 469 255Q469 324 424.50 369Q380 414 317 414Q254 414 210 369Q166 324 166 255M317 570Q254 570 211 604Q168 638 168 698L168 710L258 710L258 698Q258 669 275 654Q292 639 317 639Q340 639 357.50 654.50Q375 670 375 699L375 710L465 710L465 698Q465 638 422 604Q379 570 317 570Z"  horiz-adv-x="634" vert-adv-y="1000"  />

      
      <glyph glyph-name="uni0150" unicode="&#x0150;" d="M434 757L510 893L635 893L531 757L434 757M259 757L330 893L438 893L364 757L259 757M44 360Q44 514 147.50 618Q251 722 411 722Q571 722 674.50 618Q778 514 778 360Q778 202 674.50 95Q571-12 411-12Q251-12 147.50 95Q44 202 44 360M177 360Q177 251 243.50 178.50Q310 106 411 106Q512 106 578.50 178.50Q645 251 645 360Q645 464 578.50 534Q512 604 411 604Q310 604 243.50 534Q177 464 177 360Z"  horiz-adv-x="822" vert-adv-y="1000"  />

      
      <glyph glyph-name="uni0151" unicode="&#x0151;" d="M340 574L416 710L541 710L437 574L340 574M165 574L236 710L344 710L270 574L165 574M118 63.50Q118 63.50 77.50 101.25Q37 139 37 255Q37 371 118 446.50Q199 522 316 522Q434 522 515.50 446.50Q597 371 597 255Q597 139 516 63.50Q435-12 317-12Q199-12 118 63.50M166 255Q166 185 209.50 140.50Q253 96 317 96Q381 96 425 140.50Q469 185 469 255Q469 324 424.50 369Q380 414 317 414Q254 414 210 369Q166 324 166 255Z"  horiz-adv-x="634" vert-adv-y="1000"  />

      
      </font>
</defs>
</svg>
