<?xml version="1.0" standalone="no"?>
  <!DOCTYPE svg PUBLIC "-//W3C//DTD SVG 1.1//EN" "http://www.w3.org/Graphics/SVG/1.1/DTD/svg11.dtd" >
  <svg>
  <metadata>
  Created by font-carrier
  </metadata>
  <defs>
  <font id="MuseoSansCyrl-900" horiz-adv-x="1261" vert-adv-y="1261" >
    <font-face
      
      font-family="Museo Sans Cyrl 900"
      
      font-weight="400"
      
      font-stretch="normal"
      
      units-per-em="1000"
      
      ascent="940"
      
      descent="-260"
      
    />
      <missing-glyph />

      

      
      <glyph glyph-name="uni21" unicode="&#x21;" d="M80 221L64 715L244 715L228 221L80 221M75 0L75 150L233 150L233 0L75 0Z"  horiz-adv-x="308" vert-adv-y="1000"  />

      
      <glyph glyph-name="uni22" unicode="&#x22;" d="M253 490L253 730L375 730L375 490L253 490M62 490L62 730L184 730L184 490L62 490Z"  horiz-adv-x="437" vert-adv-y="1000"  />

      
      <glyph glyph-name="uni23" unicode="&#x23;" d="M103 0L134 180L33 180L53 300L154 300L171 395L72 395L92 515L191 515L226 715L360 715L325 515L433 515L468 715L602 715L567 515L672 515L652 395L547 395L530 300L633 300L613 180L510 180L479 0L345 0L376 180L268 180L237 0L103 0M288 300L396 300L413 395L305 395L288 300Z"  horiz-adv-x="706" vert-adv-y="1000"  />

      
      <glyph glyph-name="uni24" unicode="&#x24;" d="M42 90L134 223Q168 192 215 170.50Q262 149 305 149Q336 149 358 162.50Q380 176 380 206Q380 227 346.50 246.50Q313 266 265 285.50Q217 305 169.50 331Q122 357 88.50 402.50Q55 448 55 508Q55 590 108 647.50Q161 705 246 721L246 815L355 815L355 724Q463 713 538 646L464 503Q432 530 389 548Q346 566 306 566Q275 566 252.50 552Q230 538 230 510Q230 487 263.50 468Q297 449 344.50 430.50Q392 412 440 387.50Q488 363 521.50 317Q555 271 555 210Q555 128 501.50 67.50Q448 7 355-8L355-99L246-99L246-8Q118 11 42 90Z"  horiz-adv-x="600" vert-adv-y="1000"  />

      
      <glyph glyph-name="uni25" unicode="&#x25;" d="M215 382Q139 382 86.50 432Q34 482 34 554Q34 625 87 676Q140 727 215 727Q290 727 343 676Q396 625 396 554Q396 482 343 432Q290 382 215 382M74 0L626 715L778 715L226 0L74 0M176 517.50Q176 517.50 184 509.75Q192 502 215 502Q238 502 254 517.50Q270 533 270 555Q270 576 253.50 591.50Q237 607 215 607Q193 607 176.50 591.50Q160 576 160 555Q160 533 176 517.50M461 160Q461 231 514 282Q567 333 642 333Q717 333 770 282Q823 231 823 160Q823 88 770 38Q717-12 642-12Q566-12 513.50 38Q461 88 461 160M587 161Q587 139 603 123.50Q619 108 642 108Q665 108 681 123.50Q697 139 697 161Q697 182 680.50 197.50Q664 213 642 213Q620 213 603.50 197.50Q587 182 587 161Z"  horiz-adv-x="857" vert-adv-y="1000"  />

      
      <glyph glyph-name="uni26" unicode="&#x26;" d="M44 207Q44 262 75.50 309.50Q107 357 158 378L158 380Q119 399 96.50 441Q74 483 74 534Q74 631 142.50 679Q211 727 310 727Q355 727 413 715L373 578Q357 582 334 582Q298 582 274.50 563Q251 544 251 508Q251 479 270.50 459Q290 439 324 439L411 439L411 527L583 527L583 439L672 439L672 289L583 289L583 220Q583 120 510 54Q437-12 310-12Q190-12 117 50.50Q44 113 44 207M223 218Q223 189 248 168Q273 147 310 147Q358 147 384.50 170Q411 193 411 230L411 289L313 289Q223 289 223 218Z"  horiz-adv-x="699" vert-adv-y="1000"  />

      
      <glyph glyph-name="uni27" unicode="&#x27;" d="M62 490L62 730L187 730L187 490L62 490Z"  horiz-adv-x="249" vert-adv-y="1000"  />

      
      <glyph glyph-name="uni28" unicode="&#x28;" d="M164-95Q40 101 40 347Q40 559 164 750L306 750Q193 561 193 347Q193 120 306-95L164-95Z"  horiz-adv-x="332" vert-adv-y="1000"  />

      
      <glyph glyph-name="uni29" unicode="&#x29;" d="M26-95Q139 120 139 347Q139 561 26 750L168 750Q292 559 292 347Q292 101 168-95L26-95Z"  horiz-adv-x="332" vert-adv-y="1000"  />

      
      <glyph glyph-name="uni2a" unicode="&#x2a;" d="M191 309L69 397L144 480L144 482L34 505L80 648L182 603L171 715L323 715L311 603L414 649L461 506L350 483L350 481L426 398L304 309L248 406L246 406L191 309Z"  horiz-adv-x="495" vert-adv-y="1000"  />

      
      <glyph glyph-name="uni2b" unicode="&#x2b;" d="M27 222L27 352L232 352L232 575L368 575L368 352L573 352L573 222L368 222L368 0L232 0L232 222L27 222Z"  horiz-adv-x="600" vert-adv-y="1000"  />

      
      <glyph glyph-name="uni2c" unicode="&#x2c;" d="M11-111L86 166L251 166L138-111L11-111Z"  horiz-adv-x="298" vert-adv-y="1000"  />

      
      <glyph glyph-name="uni2d" unicode="&#x2d;" d="M59 212L59 362L373 362L373 212L59 212Z"  horiz-adv-x="432" vert-adv-y="1000"  />

      
      <glyph glyph-name="uni2e" unicode="&#x2e;" d="M59 0L59 164L223 164L223 0L59 0Z"  horiz-adv-x="282" vert-adv-y="1000"  />

      
      <glyph glyph-name="uni2f" unicode="&#x2f;" d="M26-42L282 750L426 750L170-42L26-42Z"  horiz-adv-x="452" vert-adv-y="1000"  />

      
      <glyph glyph-name="uni30" unicode="&#x30;" d="M445.50 16.50Q445.50 16.50 418.75 2.25Q392-12 318-12Q244-12 190.50 16.50Q137 45 107 97Q77 149 63 214Q49 279 49 359Q49 439 63 503.50Q77 568 107 619.50Q137 671 190.50 699Q244 727 318 727Q392 727 445.50 699Q499 671 529 619.50Q559 568 573 503.50Q587 439 587 359Q587 279 573 214Q559 149 529 97Q499 45 445.50 16.50M229 359Q229 148 318 148Q407 148 407 359Q407 567 318 567Q229 567 229 359Z"  horiz-adv-x="636" vert-adv-y="1000"  />

      
      <glyph glyph-name="uni31" unicode="&#x31;" d="M55 0L55 150L207 150L207 448L208 503L206 503Q197 483 178 465L135 426L34 534L227 715L378 715L378 150L531 150L531 0L55 0Z"  horiz-adv-x="552" vert-adv-y="1000"  />

      
      <glyph glyph-name="uni32" unicode="&#x32;" d="M55 0Q47 45 47 77Q47 139 70 192Q93 245 127 279Q161 313 201.50 344Q242 375 276 396.50Q310 418 333 442.50Q356 467 356 491Q356 526 333 544Q310 562 279 562Q246 562 218 540Q190 518 173 486L43 573Q78 641 141.50 684Q205 727 295 727Q393 727 466 670.50Q539 614 539 508Q539 446 509 395Q479 344 436 311.50Q393 279 350 252.50Q307 226 275 200.50Q243 175 241 150L550 150L550 0L55 0Z"  horiz-adv-x="599" vert-adv-y="1000"  />

      
      <glyph glyph-name="uni33" unicode="&#x33;" d="M30 82L114 217Q180 153 261 153Q308 153 335.50 173.50Q363 194 363 224Q363 303 230 303L180 303L143 388L237 501Q252 519 267.50 536Q283 553 291 560L299 568L299 570Q276 565 231 565L60 565L60 715L511 715L511 606L366 439Q445 422 492 365Q539 308 539 232Q539 132 469.50 60Q400-12 274-12Q123-12 30 82Z"  horiz-adv-x="582" vert-adv-y="1000"  />

      
      <glyph glyph-name="uni34" unicode="&#x34;" d="M24 173L24 279L300 715L514 715L514 318L599 318L599 173L514 173L514 0L341 0L341 173L24 173M202 318L341 318L341 478L347 558L345 558Q330 514 310 484L202 320L202 318Z"  horiz-adv-x="633" vert-adv-y="1000"  />

      
      <glyph glyph-name="uni35" unicode="&#x35;" d="M37 82L121 217Q189 153 266 153Q305 153 335.50 176.50Q366 200 366 241Q366 282 334 306Q302 330 252 330Q204 330 156 306L63 341L92 715L492 715L492 565L244 565L240 499L236 471L238 471Q257 478 290 478Q412 478 479 411.50Q546 345 546 243Q546 132 472 60Q398-12 281-12Q135-12 37 82Z"  horiz-adv-x="582" vert-adv-y="1000"  />

      
      <glyph glyph-name="uni36" unicode="&#x36;" d="M45 330Q45 404 67.50 474Q90 544 131.50 601Q173 658 239.50 692.50Q306 727 386 727Q479 727 544 696L497 546Q484 553 453 560Q422 567 399 567Q284 567 245 449L247 449Q260 458 290 466Q320 474 345 474Q451 474 515 400.50Q579 327 579 229Q579 132 512.50 60Q446-12 335-12Q217-12 131 77Q45 166 45 330M335 148Q367 148 387 171.50Q407 195 407 228Q407 271 380 302Q353 333 299 333Q225 333 225 290Q225 230 260 189Q295 148 335 148Z"  horiz-adv-x="615" vert-adv-y="1000"  />

      
      <glyph glyph-name="uni37" unicode="&#x37;" d="M63 0L316 501Q327 523 337.50 539Q348 555 353 560L358 566L358 568Q352 565 316 565L33 565L33 715L546 715L546 593L246 0L63 0Z"  horiz-adv-x="563" vert-adv-y="1000"  />

      
      <glyph glyph-name="uni38" unicode="&#x38;" d="M43 210Q43 250 63 289.50Q83 329 102.50 349Q122 369 142 384Q77 442 77 521Q77 607 138 667Q199 727 317 727Q421 727 490 671.50Q559 616 559 520Q559 441 489 356Q573 298 573 206Q573 117 503 52.50Q433-12 308-12Q184-12 113.50 53.50Q43 119 43 210M362 419Q388 461 388 507Q388 537 368 555Q348 573 313 573Q281 573 264.50 557.50Q248 542 248 517Q248 485 276.50 464Q305 443 362 419M222 225Q222 190 247 166Q272 142 308 142Q348 142 371 161Q394 180 394 215Q394 222 392 228Q390 234 385 240Q380 246 375.50 251Q371 256 361.50 262Q352 268 345.50 272Q339 276 326.50 282Q314 288 306.50 292Q299 296 284 302.50Q269 309 261 313Q222 272 222 225Z"  horiz-adv-x="621" vert-adv-y="1000"  />

      
      <glyph glyph-name="uni39" unicode="&#x39;" d="M71 19L118 169Q167 148 216 148Q331 148 370 266L368 266Q356 256 326 248.50Q296 241 270 241Q164 241 100 314.50Q36 388 36 486Q36 583 102.50 655Q169 727 280 727Q398 727 484 638Q570 549 570 385Q570 311 547.50 241Q525 171 483.50 114Q442 57 375.50 22.50Q309-12 229-12Q136-12 71 19M316 382Q390 382 390 425Q390 485 355 526Q320 567 280 567Q248 567 228 543.50Q208 520 208 487Q208 444 235 413Q262 382 316 382Z"  horiz-adv-x="615" vert-adv-y="1000"  />

      
      <glyph glyph-name="uni3a" unicode="&#x3a;" d="M59 351L59 515L223 515L223 351L59 351M59 0L59 164L223 164L223 0L59 0Z"  horiz-adv-x="282" vert-adv-y="1000"  />

      
      <glyph glyph-name="uni3b" unicode="&#x3b;" d="M88 351L88 515L246 515L246 351L88 351M18-111L83 166L249 166L146-111L18-111Z"  horiz-adv-x="306" vert-adv-y="1000"  />

      
      <glyph glyph-name="uni3c" unicode="&#x3c;" d="M34 234L34 341L538 564L538 419L208 288L208 286L538 156L538 11L34 234Z"  horiz-adv-x="600" vert-adv-y="1000"  />

      
      <glyph glyph-name="uni3d" unicode="&#x3d;" d="M47 337L47 467L553 467L553 337L47 337M47 107L47 237L553 237L553 107L47 107Z"  horiz-adv-x="600" vert-adv-y="1000"  />

      
      <glyph glyph-name="uni3e" unicode="&#x3e;" d="M61 11L61 156L391 286L391 288L61 419L61 564L565 341L565 234L61 11Z"  horiz-adv-x="600" vert-adv-y="1000"  />

      
      <glyph glyph-name="uni3f" unicode="&#x3f;" d="M135 221L135 271Q135 308 151 339.50Q167 371 190.50 391.50Q214 412 237 430.50Q260 449 276 470Q292 491 292 514Q292 539 271 556Q250 573 221 573Q175 573 126 530L30 647Q113 730 239 730Q331 730 401.50 677.50Q472 625 472 534Q472 489 454.50 451.50Q437 414 411.50 390.50Q386 367 361 346.50Q336 326 318.50 303.50Q301 281 301 257L301 221L135 221M139 0L139 150L297 150L297 0L139 0Z"  horiz-adv-x="509" vert-adv-y="1000"  />

      
      <glyph glyph-name="uni40" unicode="&#x40;" d="M160.50-25Q160.50-25 103.25 27.50Q46 80 46 239Q46 398 158.50 506.50Q271 615 439 615Q595 615 666 548.50Q737 482 737 375L737 177L811 177L811 58L528 58Q422 58 361.50 112Q301 166 301 240Q301 312 360.50 364Q420 416 528 416L577 416Q577 446 535.50 463Q494 480 442 480Q347 480 281 406.50Q215 333 215 239Q215 138 282 69Q349 0 467 0L467-130Q275-130 160.50-25M489.50 292Q489.50 292 480.75 282.50Q472 273 472 244Q472 215 489 196Q506 177 538 177L577 177L577 311L540 311Q507 311 489.50 292Z"  horiz-adv-x="845" vert-adv-y="1000"  />

      
      <glyph glyph-name="uni41" unicode="&#x41;" d="M-3 0L240 715L424 715L667 0L487 0L443 150L220 150L177 0L-3 0M261 290L402 290L362 429L333 552L331 552Q315 474 302 429L261 290Z"  horiz-adv-x="664" vert-adv-y="1000"  />

      
      <glyph glyph-name="uni42" unicode="&#x42;" d="M75 0L75 715L338 715Q448 715 514.50 666.50Q581 618 581 528Q581 482 559 440.50Q537 399 498 376L498 374Q555 357 582.50 311.50Q610 266 610 213Q610 104 533 52Q456 0 338 0L75 0M250 438L340 438Q371 438 387 457Q403 476 403 504Q403 531 386.50 548Q370 565 337 565L250 565L250 438M250 150L355 150Q391 150 411 171.50Q431 193 431 225Q431 257 412 277.50Q393 298 356 298L250 298L250 150Z"  horiz-adv-x="647" vert-adv-y="1000"  />

      
      <glyph glyph-name="uni43" unicode="&#x43;" d="M37 359Q37 517 142.50 622Q248 727 412 727Q487 727 558 701.50Q629 676 680 626L599 494Q563 526 514.50 546.50Q466 567 420 567Q320 567 269 507.50Q218 448 218 363Q218 276 270.50 212Q323 148 420 148Q522 148 610 236L700 108Q584-12 412-12Q242-12 139.50 92.50Q37 197 37 359Z"  horiz-adv-x="714" vert-adv-y="1000"  />

      
      <glyph glyph-name="uni44" unicode="&#x44;" d="M75 0L75 715L329 715Q499 715 598.50 620.50Q698 526 698 359Q698 191 598.50 95.50Q499 0 329 0L75 0M250 150L322 150Q414 150 465.50 204Q517 258 517 359Q517 459 465 512Q413 565 322 565L250 565L250 150Z"  horiz-adv-x="737" vert-adv-y="1000"  />

      
      <glyph glyph-name="uni45" unicode="&#x45;" d="M75 0L75 715L523 715L523 565L250 565L250 435L468 435L468 285L250 285L250 150L537 150L537 0L75 0Z"  horiz-adv-x="574" vert-adv-y="1000"  />

      
      <glyph glyph-name="uni46" unicode="&#x46;" d="M75 0L75 715L513 715L513 565L250 565L250 415L468 415L468 265L250 265L250 0L75 0Z"  horiz-adv-x="537" vert-adv-y="1000"  />

      
      <glyph glyph-name="uni47" unicode="&#x47;" d="M37 359Q37 516 143.50 621.50Q250 727 412 727Q579 727 687 632L603 501Q572 529 523 548Q474 567 429 567Q323 567 270.50 509.50Q218 452 218 365Q218 266 277.50 207Q337 148 423 148Q501 148 568 200L568 255L467 255L467 404L723 404L723 0L577 0L577 20L578 50L576 50Q544 22 492.50 5Q441-12 388-12Q244-12 140.50 89Q37 190 37 359Z"  horiz-adv-x="773" vert-adv-y="1000"  />

      
      <glyph glyph-name="uni48" unicode="&#x48;" d="M75 0L75 715L250 715L250 429L510 429L510 715L685 715L685 0L510 0L510 280L250 280L250 0L75 0Z"  horiz-adv-x="760" vert-adv-y="1000"  />

      
      <glyph glyph-name="uni49" unicode="&#x49;" d="M75 0L75 715L250 715L250 0L75 0Z"  horiz-adv-x="325" vert-adv-y="1000"  />

      
      <glyph glyph-name="uni4a" unicode="&#x4a;" d="M18 220L18 272L193 272L193 234Q193 148 258 148Q288 148 305 167Q322 186 322 224L322 565L130 565L130 715L497 715L497 220Q497 109 426 48.50Q355-12 258-12Q160-12 89 49Q18 110 18 220Z"  horiz-adv-x="566" vert-adv-y="1000"  />

      
      <glyph glyph-name="uni4b" unicode="&#x4b;" d="M75 0L75 715L250 715L250 439L322 439L470 715L658 715L465 373L465 371L669 0L473 0L322 290L250 290L250 0L75 0Z"  horiz-adv-x="675" vert-adv-y="1000"  />

      
      <glyph glyph-name="uni4c" unicode="&#x4c;" d="M75 0L75 715L250 715L250 150L542 150L542 0L75 0Z"  horiz-adv-x="552" vert-adv-y="1000"  />

      
      <glyph glyph-name="uni4d" unicode="&#x4d;" d="M47 0L106 715L296 715L400 413L436 295L438 295Q458 367 474 413L578 715L768 715L826 0L651 0L629 322Q627 346 627 376Q627 406 628 424L629 442L627 442Q603 367 587 322L512 115L362 115L287 322L247 442L245 442Q249 376 245 322L223 0L47 0Z"  horiz-adv-x="874" vert-adv-y="1000"  />

      
      <glyph glyph-name="uni4e" unicode="&#x4e;" d="M75 0L75 715L252 715L450 381Q462 360 477 329.50Q492 299 501 279L510 259L512 259Q504 336 504 381L504 715L679 715L679 0L503 0L304 333Q292 354 277 384.50Q262 415 253 435L244 455L242 455Q250 378 250 333L250 0L75 0Z"  horiz-adv-x="754" vert-adv-y="1000"  />

      
      <glyph glyph-name="uni4f" unicode="&#x4f;" d="M36 362Q36 518 141 622.50Q246 727 410 727Q574 727 679 622.50Q784 518 784 362Q784 202 679 95Q574-12 410-12Q246-12 141 95Q36 202 36 362M217 362Q217 270 271.50 209Q326 148 410 148Q494 148 548.50 209Q603 270 603 362Q603 450 548.50 508.50Q494 567 410 567Q326 567 271.50 508.50Q217 450 217 362Z"  horiz-adv-x="820" vert-adv-y="1000"  />

      
      <glyph glyph-name="uni50" unicode="&#x50;" d="M75 0L75 715L372 715Q476 715 540.50 646Q605 577 605 469Q605 360 540.50 290.50Q476 221 372 221L250 221L250 0L75 0M250 371L336 371Q380 371 403.50 398Q427 425 427 469Q427 513 404 539Q381 565 339 565L250 565L250 371Z"  horiz-adv-x="629" vert-adv-y="1000"  />

      
      <glyph glyph-name="uni51" unicode="&#x51;" d="M36 362Q36 518 141 622.50Q246 727 410 727Q574 727 679 622.50Q784 518 784 362Q784 251 713 150L788 89L689-22L616 47Q526-12 410-12Q246-12 141 95Q36 202 36 362M217 362Q217 270 271.50 209Q326 148 410 148Q456 148 488 164L415 228L513 339L584 270Q603 314 603 362Q603 450 548 508.50Q493 567 410 567Q326 567 271.50 508.50Q217 450 217 362Z"  horiz-adv-x="819" vert-adv-y="1000"  />

      
      <glyph glyph-name="uni52" unicode="&#x52;" d="M75 0L75 715L324 715Q419 715 463 698Q525 674 560 620.50Q595 567 595 490Q595 430 567 375.50Q539 321 488 295L488 293Q498 280 515 250L654 0L459 0L332 241L250 241L250 0L75 0M250 391L326 391Q369 391 393 414Q417 437 417 479Q417 538 375 555Q352 565 309 565L250 565L250 391Z"  horiz-adv-x="658" vert-adv-y="1000"  />

      
      <glyph glyph-name="uni53" unicode="&#x53;" d="M26 90L118 223Q152 193 199 171Q246 149 290 149Q325 149 344.50 163Q364 177 364 199Q364 222 340.50 241.50Q317 261 282 274Q247 287 206 307.50Q165 328 130 351Q95 374 71.50 414.50Q48 455 48 508Q48 606 120.50 666.50Q193 727 307 727Q440 727 531 646L457 503Q426 530 383 548Q340 566 299 566Q261 566 242 552Q223 538 223 515Q223 492 246.50 473Q270 454 305 441.50Q340 429 381 409.50Q422 390 457 367.50Q492 345 515.50 304.50Q539 264 539 211Q539 116 471.50 52Q404-12 285-12Q213-12 144.50 14Q76 40 26 90Z"  horiz-adv-x="575" vert-adv-y="1000"  />

      
      <glyph glyph-name="uni54" unicode="&#x54;" d="M229 0L229 565L12 565L12 715L621 715L621 565L404 565L404 0L229 0Z"  horiz-adv-x="633" vert-adv-y="1000"  />

      
      <glyph glyph-name="uni55" unicode="&#x55;" d="M67 263L67 715L242 715L242 263Q242 208 275.50 178Q309 148 366 148Q423 148 456.50 178Q490 208 490 263L490 715L665 715L665 263Q665 141 583 64.50Q501-12 367-12Q232-12 149.50 64.50Q67 141 67 263Z"  horiz-adv-x="732" vert-adv-y="1000"  />

      
      <glyph glyph-name="uni56" unicode="&#x56;" d="M247 0L-6 715L184 715L310 308Q316 288 323 259Q330 230 334 212L337 193L339 193Q352 263 366 308L494 715L681 715L429 0L247 0Z"  horiz-adv-x="675" vert-adv-y="1000"  />

      
      <glyph glyph-name="uni57" unicode="&#x57;" d="M187 0L13 715L197 715L287 268Q291 248 293.50 229.50Q296 211 296 202L296 193L298 193Q299 224 310 268L420 715L561 715L668 268Q673 248 676 229.50Q679 211 680 202L680 193L682 193Q682 224 691 268L789 715L970 715L789 0L594 0L504 361L490 445L488 445Q485 407 474 361L384 0L187 0Z"  horiz-adv-x="979" vert-adv-y="1000"  />

      
      <glyph glyph-name="uni58" unicode="&#x58;" d="M8 0L225 355L7 715L206 715L284 568L328 476L330 476Q349 522 374 568L453 715L652 715L433 355L651 0L456 0L374 150L330 239L328 239Q309 195 284 150L202 0L8 0Z"  horiz-adv-x="659" vert-adv-y="1000"  />

      
      <glyph glyph-name="uni59" unicode="&#x59;" d="M226 0L226 293L-10 715L189 715L270 543L313 440L315 440Q335 494 358 543L438 715L637 715L401 293L401 0L226 0Z"  horiz-adv-x="627" vert-adv-y="1000"  />

      
      <glyph glyph-name="uni5a" unicode="&#x5a;" d="M37 0L37 110L313 501Q327 521 340.50 537Q354 553 361 560L368 566L368 568Q345 565 313 565L50 565L50 715L590 715L590 607L313 214Q299 194 285.50 178Q272 162 265 156L258 149L258 147Q281 150 313 150L595 150L595 0L37 0Z"  horiz-adv-x="635" vert-adv-y="1000"  />

      
      <glyph glyph-name="uni5b" unicode="&#x5b;" d="M70-95L70 750L316 750L316 630L214 630L214 25L316 25L316-95L70-95Z"  horiz-adv-x="352" vert-adv-y="1000"  />

      
      <glyph glyph-name="uni5c" unicode="&#x5c;" d="M282-42L26 750L170 750L426-42L282-42Z"  horiz-adv-x="452" vert-adv-y="1000"  />

      
      <glyph glyph-name="uni5d" unicode="&#x5d;" d="M36 25L138 25L138 630L36 630L36 750L282 750L282-95L36-95L36 25Z"  horiz-adv-x="352" vert-adv-y="1000"  />

      
      <glyph glyph-name="uni5e" unicode="&#x5e;" d="M58 241L261 715L368 715L571 241L426 241L314 541L203 241L58 241Z"  horiz-adv-x="630" vert-adv-y="1000"  />

      
      <glyph glyph-name="uni5f" unicode="&#x5f;" d="M11 0L607 0L607-130L11-130L11 0Z"  horiz-adv-x="618" vert-adv-y="1000"  />

      
      <glyph glyph-name="uni60" unicode="&#x60;" d="M234 761L116 911L287 911L368 761L234 761Z"  horiz-adv-x="484" vert-adv-y="1000"  />

      
      <glyph glyph-name="uni61" unicode="&#x61;" d="M22 145Q22 194 49 230Q76 266 120.50 285Q165 304 213 312.50Q261 321 313 321L328 321L328 330Q328 387 255 387Q187 387 113 338L53 460Q88 487 149.50 507Q211 527 271 527Q378 527 439.50 471Q501 415 501 317L501 0L343 0L343 31L345 63L343 63Q318 28 276.50 8Q235-12 190-12Q116-12 69 33Q22 78 22 145M193 161Q193 142 206 129.50Q219 117 242 117Q278 117 304 146Q330 175 330 208L330 222L314 222Q266 222 229.50 207.50Q193 193 193 161Z"  horiz-adv-x="553" vert-adv-y="1000"  />

      
      <glyph glyph-name="uni62" unicode="&#x62;" d="M58 0L58 715L231 715L231 516L229 472L231 472Q253 497 291.50 512Q330 527 370 527Q475 527 538.50 452.50Q602 378 602 257Q602 136 534 62Q466-12 362-12Q269-12 218 49L216 49Q217 36 217 20L217 0L58 0M226 254Q226 204 252.50 167.50Q279 131 327 131Q370 131 399 164Q428 197 428 254Q428 311 400 346Q372 381 327 381Q284 381 255 349Q226 317 226 254Z"  horiz-adv-x="633" vert-adv-y="1000"  />

      
      <glyph glyph-name="uni63" unicode="&#x63;" d="M29 258Q29 368 106.50 447.50Q184 527 316 527Q374 527 429.50 507.50Q485 488 521 449L448 333Q396 383 327 383Q269 383 236.50 346.50Q204 310 204 260Q204 209 238 170.50Q272 132 333 132Q402 132 474 194L537 73Q499 34 439.50 11Q380-12 316-12Q184-12 106.50 67Q29 146 29 258Z"  horiz-adv-x="552" vert-adv-y="1000"  />

      
      <glyph glyph-name="uni64" unicode="&#x64;" d="M94.50 62.50Q94.50 62.50 62.75 99.75Q31 137 31 258Q31 379 96.50 453Q162 527 266 527Q360 527 401 486L403 486Q402 496 402 509L402 715L575 715L575 0L413 0L413 34L414 63L412 63Q363-12 263-12Q158-12 94.50 62.50M234 348Q234 348 219.50 331.50Q205 315 205 258Q205 201 233 166Q261 131 306 131Q349 131 378 163Q407 195 407 258Q407 308 380.50 344.50Q354 381 306 381Q263 381 234 348Z"  horiz-adv-x="633" vert-adv-y="1000"  />

      
      <glyph glyph-name="uni65" unicode="&#x65;" d="M29 258Q29 374 102 450.50Q175 527 297 527Q408 527 471.50 457.50Q535 388 535 278Q535 260 531 224L206 224Q215 179 248.50 155.50Q282 132 326 132Q390 132 468 184L532 63Q491 28 431.50 8Q372-12 312-12Q181-12 105 68Q29 148 29 258M210 323L364 323Q364 356 344.50 378Q325 400 293 400Q227 400 210 323Z"  horiz-adv-x="567" vert-adv-y="1000"  />

      
      <glyph glyph-name="uni66" unicode="&#x66;" d="M95 0L95 371L32 371L32 506L95 506L95 527Q95 575 112 611.50Q129 648 153.50 668Q178 688 212.50 700Q247 712 274.50 715.50Q302 719 331 719Q365 719 383 716L383 570Q375 572 355 572Q268 572 268 522L268 506L363 506L363 371L268 371L268 0L95 0Z"  horiz-adv-x="382" vert-adv-y="1000"  />

      
      <glyph glyph-name="uni67" unicode="&#x67;" d="M130-33Q198-66 275-66Q394-66 394 33L394 50L395 69L393 69Q348 15 264 15Q154 15 93 91Q32 167 32 274Q32 380 92 453.50Q152 527 263 527Q353 527 403 477L406 477Q405 483 405 489L405 515L567 515L567 47Q567-21 542-72Q517-123 474-152.50Q431-182 381.50-196Q332-210 276-210Q169-210 81-164L130-33M206 280Q206 228 231 193.50Q256 159 305 159Q345 159 371.50 184.50Q398 210 398 272Q398 383 298 383Q254 383 230 354.50Q206 326 206 280Z"  horiz-adv-x="625" vert-adv-y="1000"  />

      
      <glyph glyph-name="uni68" unicode="&#x68;" d="M58 0L58 715L231 715L231 489L229 445L231 445Q253 483 295 505Q337 527 388 527Q573 527 573 334L573 0L400 0L400 302Q400 370 343 370Q289 370 260 332Q231 294 231 232L231 0L58 0Z"  horiz-adv-x="626" vert-adv-y="1000"  />

      
      <glyph glyph-name="uni69" unicode="&#x69;" d="M60 580L60 715L229 715L229 580L60 580M58 0L58 515L231 515L231 0L58 0Z"  horiz-adv-x="289" vert-adv-y="1000"  />

      
      <glyph glyph-name="uni6a" unicode="&#x6a;" d="M60 580L60 715L229 715L229 580L60 580M58 4L58 515L231 515L231-13Q231-62 213-99.50Q195-137 169.50-157Q144-177 108.50-189Q73-201 45.50-204.50Q18-208-11-208Q-34-208-57-205L-57-61Q-49-62-35-62Q58-62 58 4Z"  horiz-adv-x="289" vert-adv-y="1000"  />

      
      <glyph glyph-name="uni6b" unicode="&#x6b;" d="M58 0L58 715L231 715L231 345L280 345L382 515L570 515L419 281L419 279L591 0L394 0L285 200L231 200L231 0L58 0Z"  horiz-adv-x="591" vert-adv-y="1000"  />

      
      <glyph glyph-name="uni6c" unicode="&#x6c;" d="M57 190L57 715L230 715L230 213Q230 175 239.50 161Q249 147 278 147Q291 147 299 148L299-2Q263-5 247-5Q207-5 177.50 1.50Q148 8 118.50 27Q89 46 73 87Q57 128 57 190Z"  horiz-adv-x="323" vert-adv-y="1000"  />

      
      <glyph glyph-name="uni6d" unicode="&#x6d;" d="M58 0L58 515L224 515L224 470L222 438L224 438Q283 527 377 527Q481 527 521 440L523 440Q545 476 589.50 501.50Q634 527 688 527Q764 527 809.50 481Q855 435 855 334L855 0L682 0L682 305Q682 370 642 370Q590 370 566.50 326.50Q543 283 543 218L543 0L370 0L370 305Q370 370 330 370Q276 370 253.50 326Q231 282 231 218L231 0L58 0Z"  horiz-adv-x="909" vert-adv-y="1000"  />

      
      <glyph glyph-name="uni6e" unicode="&#x6e;" d="M58 0L58 515L224 515L224 470L222 438L224 438Q277 527 388 527Q573 527 573 334L573 0L400 0L400 302Q400 370 343 370Q288 370 259.50 331Q231 292 231 233L231 0L58 0Z"  horiz-adv-x="626" vert-adv-y="1000"  />

      
      <glyph glyph-name="uni6f" unicode="&#x6f;" d="M113 62.50Q113 62.50 71 99.75Q29 137 29 256Q29 375 113 451Q197 527 320 527Q444 527 528.50 451.50Q613 376 613 256Q613 137 529 62.50Q445-12 321-12Q197-12 113 62.50M204 256Q204 200 238 166Q272 132 321 132Q370 132 404 166Q438 200 438 256Q438 313 404 348Q370 383 321 383Q272 383 238 348Q204 313 204 256Z"  horiz-adv-x="642" vert-adv-y="1000"  />

      
      <glyph glyph-name="uni70" unicode="&#x70;" d="M58-200L58 515L214 515L214 489L212 456L214 456Q267 527 370 527Q475 527 538.50 452.50Q602 378 602 257Q602 136 534 62Q466-12 362-12Q288-12 231 37L229 37Q231 19 231-7L231-200L58-200M226 254Q226 204 252.50 167.50Q279 131 327 131Q370 131 399 164Q428 197 428 254Q428 311 400 346Q372 381 327 381Q284 381 255 349Q226 317 226 254Z"  horiz-adv-x="633" vert-adv-y="1000"  />

      
      <glyph glyph-name="uni71" unicode="&#x71;" d="M94.50 62.50Q94.50 62.50 62.75 99.75Q31 137 31 258Q31 379 96.50 453Q162 527 266 527Q364 527 413 472L415 472Q413 483 413 500L413 515L575 515L575-200L402-200L402 2L404 46L402 46Q352-12 263-12Q158-12 94.50 62.50M234 348Q234 348 219.50 331.50Q205 315 205 258Q205 201 233 166Q261 131 306 131Q349 131 378 163Q407 195 407 258Q407 308 380.50 344.50Q354 381 306 381Q263 381 234 348Z"  horiz-adv-x="633" vert-adv-y="1000"  />

      
      <glyph glyph-name="uni72" unicode="&#x72;" d="M58 0L58 515L224 515L224 428L222 396L224 396Q241 450 286.50 487Q332 524 388 524Q396 524 408 522L408 352Q399 355 373 355Q303 355 267 314Q231 273 231 200L231 0L58 0Z"  horiz-adv-x="426" vert-adv-y="1000"  />

      
      <glyph glyph-name="uni73" unicode="&#x73;" d="M19 64L93 177Q155 125 233 125Q280 125 280 152Q280 167 255 178.50Q230 190 195 202Q160 214 124.50 231.50Q89 249 64 283Q39 317 39 364Q39 441 99.50 484Q160 527 253 527Q364 527 437 468L378 348Q356 366 318.50 378Q281 390 248 390Q200 390 200 365Q200 353 218 342.50Q236 332 262.50 324.50Q289 317 320.50 303.50Q352 290 378.50 273.50Q405 257 423 226.50Q441 196 441 157Q441 83 383.50 35.50Q326-12 229-12Q104-12 19 64Z"  horiz-adv-x="471" vert-adv-y="1000"  />

      
      <glyph glyph-name="uni74" unicode="&#x74;" d="M88 190L88 371L22 371L22 506L93 506L93 654L261 654L261 506L369 506L369 371L261 371L261 213Q261 147 353 147Q365 147 376 148L376-2Q337-5 329-5Q305-5 282.50-2.50Q260 0 230.50 7Q201 14 177.50 28Q154 42 133 62.50Q112 83 100 116Q88 149 88 190Z"  horiz-adv-x="411" vert-adv-y="1000"  />

      
      <glyph glyph-name="uni75" unicode="&#x75;" d="M53 181L53 515L226 515L226 213Q226 145 281 145Q334 145 362 185.50Q390 226 390 287L390 515L563 515L563 0L397 0L397 45L399 77L397 77Q376 36 332 12Q288-12 236-12Q152-12 102.50 33.50Q53 79 53 181Z"  horiz-adv-x="621" vert-adv-y="1000"  />

      
      <glyph glyph-name="uni76" unicode="&#x76;" d="M181 0L3 515L185 515L265 241L284 152L286 152Q295 207 305 241L384 515L567 515L392 0L181 0Z"  horiz-adv-x="572" vert-adv-y="1000"  />

      
      <glyph glyph-name="uni77" unicode="&#x77;" d="M155 0L11 515L193 515L257 211L263 157L265 157Q267 183 274 211L345 515L493 515L564 211L572 157L574 157Q575 183 581 211L645 515L825 515L681 0L488 0L430 238L420 293L418 293Q415 266 408 238L350 0L155 0Z"  horiz-adv-x="836" vert-adv-y="1000"  />

      
      <glyph glyph-name="uni78" unicode="&#x78;" d="M11 0L173 255L7 515L202 515L258 400L274 366L276 366Q286 387 292 400L348 515L543 515L378 255L540 0L350 0L288 116L276 142L274 142Q267 125 262 116L201 0L11 0Z"  horiz-adv-x="550" vert-adv-y="1000"  />

      
      <glyph glyph-name="uni79" unicode="&#x79;" d="M63-47Q91-66 116-66Q178-66 199-14L209 10L-10 515L186 515L262 278L281 198L283 198Q293 247 300 275L365 515L554 515L343-55Q313-135 254.50-172.50Q196-210 128-210Q98-210 68-201Q38-192 23-183L8-174L63-47Z"  horiz-adv-x="561" vert-adv-y="1000"  />

      
      <glyph glyph-name="uni7a" unicode="&#x7a;" d="M34 0L34 86L223 323Q235 337 246 349Q257 361 262 366L268 370L268 372Q255 370 223 370L42 370L42 515L502 515L502 428L314 191Q303 177 291.50 165.50Q280 154 274 149L268 144L268 142Q281 145 314 145L507 145L507 0L34 0Z"  horiz-adv-x="544" vert-adv-y="1000"  />

      
      <glyph glyph-name="uni7b" unicode="&#x7b;" d="M117 62L117 160Q117 202 95.50 227Q74 252 32 256L32 406Q72 410 94.50 435Q117 460 117 505L117 593Q117 643 137.50 678Q158 713 191.50 728.50Q225 744 254.50 749.50Q284 755 316 755L359 753L359 629Q348 631 334 631Q261 631 261 577L261 460Q261 414 237.50 379.50Q214 345 177 333L177 331Q261 301 261 205L261 78Q261 24 334 24L359 26L359-98Q341-100 316-100Q284-100 254.50-94.50Q225-89 191.50-73.50Q158-58 137.50-23Q117 12 117 62Z"  horiz-adv-x="395" vert-adv-y="1000"  />

      
      <glyph glyph-name="uni7c" unicode="&#x7c;" d="M68-165L68 802L212 802L212-165L68-165Z"  horiz-adv-x="280" vert-adv-y="1000"  />

      
      <glyph glyph-name="uni7d" unicode="&#x7d;" d="M36 26Q47 24 61 24Q134 24 134 78L134 205Q134 248 156 284Q178 320 218 331L218 333Q184 344 159 378Q134 412 134 460L134 577Q134 631 61 631L36 629L36 753Q54 755 79 755Q111 755 140.50 749.50Q170 744 203.50 728.50Q237 713 257.50 678Q278 643 278 593L278 505Q278 464 299.50 436.50Q321 409 363 406L363 256Q324 255 301 227.50Q278 200 278 160L278 62Q278 12 257.50-23Q237-58 203.50-73.50Q170-89 140.50-94.50Q111-100 79-100L36-98L36 26Z"  horiz-adv-x="395" vert-adv-y="1000"  />

      
      <glyph glyph-name="uni7e" unicode="&#x7e;" d="M53 191Q53 394 227 394Q258 394 285.50 381.50Q313 369 328.50 354Q344 339 363 326.50Q382 314 399 314Q424 314 439 333.50Q454 353 454 390L587 390Q587 187 414 187Q383 187 355.50 199.50Q328 212 312.50 227Q297 242 277.50 254.50Q258 267 241 267Q217 267 202 247.50Q187 228 187 191L53 191Z"  horiz-adv-x="636" vert-adv-y="1000"  />

      
      <glyph glyph-name="unia1" unicode="&#xa1;" d="M219 294L235-200L55-200L71 294L219 294M224 515L224 365L66 365L66 515L224 515Z"  horiz-adv-x="290" vert-adv-y="1000"  />

      
      <glyph glyph-name="unia2" unicode="&#xa2;" d="M256-12L256 75Q165 96 104 174.50Q43 253 43 358Q43 462 104.50 541Q166 620 256 641L256 726L366 726L366 641Q434 626 485.50 580.50Q537 535 559 469L405 409Q394 441 370.50 462.50Q347 484 315 484Q278 484 247.50 448Q217 412 217 358Q217 298 245.50 265Q274 232 315 232Q347 232 371 253.50Q395 275 405 307L559 247Q538 187 487.50 136Q437 85 366 75L366-12L256-12Z"  horiz-adv-x="600" vert-adv-y="1000"  />

      
      <glyph glyph-name="unia3" unicode="&#xa3;" d="M45 0L45 150L100 150L100 299L57 299L57 411L100 411L100 511Q100 606 169 666.50Q238 727 344 727Q457 727 540 644L443 526Q399 570 349 570Q320 570 299.50 552.50Q279 535 279 506L279 411L444 411L444 299L279 299L279 150L569 150L569 0L45 0Z"  horiz-adv-x="600" vert-adv-y="1000"  />

      
      <glyph glyph-name="unia4" unicode="&#xa4;" d="M112 0L112 142L47 142L47 253L112 253L112 310L47 310L47 444L112 444L112 715L394 715Q509 715 566 658.50Q623 602 623 503Q623 411 556.50 360Q490 309 384 309L287 309L287 253L531 253L531 142L287 142L287 0L112 0M287 444L358 444Q402 444 423 464.50Q444 485 444 514Q444 542 423.50 561Q403 580 361 580L287 580L287 444Z"  horiz-adv-x="645" vert-adv-y="1000"  />

      
      <glyph glyph-name="unia5" unicode="&#xa5;" d="M47 167L47 263L210 263L210 291L186 340L47 340L47 436L139 436L2 715L203 715L256 572L299 439L301 439Q320 506 344 572L397 715L598 715L460 436L553 436L553 340L413 340L389 291L389 263L553 263L553 167L389 167L389 0L210 0L210 167L47 167Z"  horiz-adv-x="600" vert-adv-y="1000"  />

      
      <glyph glyph-name="unia7" unicode="&#xa7;" d="M143 179L67 452Q57 489 57 527Q57 616 116.50 671.50Q176 727 288 727Q345 727 400.50 707Q456 687 495 650L421 542Q366 589 290 589Q192 589 192 506Q192 476 202 439L274 179L143 179M34 15L103 130Q162 75 240 75Q338 75 338 169Q338 201 325 246L257 486L388 486L462 213Q472 176 472 138Q472 49 412.50-6.50Q353-62 241-62Q185-62 128.50-42Q72-22 34 15Z"  horiz-adv-x="529" vert-adv-y="1000"  />

      
      <glyph glyph-name="unia8" unicode="&#xa8;" d="M284 771L284 911L410 911L410 771L284 771M75 771L75 911L201 911L201 771L75 771Z"  horiz-adv-x="485" vert-adv-y="1000"  />

      
      <glyph glyph-name="unia9" unicode="&#xa9;" d="M148.50 96.50Q148.50 96.50 95.75 150.75Q43 205 43 358Q43 511 148 618.50Q253 726 402 726Q553 726 659 618.50Q765 511 765 358Q765 205 659 96.50Q553-12 402-12Q254-12 148.50 96.50M156 358Q156 246 227 168.50Q298 91 402 91Q508 91 580.50 168.50Q653 246 653 358Q653 469 580.50 546Q508 623 402 623Q298 623 227 546Q156 469 156 358M283 222.50Q283 222.50 257.50 249.75Q232 277 232 355Q232 433 283 487.50Q334 542 404 542Q462 542 505 511Q548 480 566 427L466 388Q462 407 445.50 422Q429 437 408 437Q385 437 367 414Q349 391 349 355Q349 316 365.50 294.50Q382 273 408 273Q428 273 444 287Q460 301 466 322L566 283Q553 237 509.50 202.50Q466 168 404 168Q334 168 283 222.50Z"  horiz-adv-x="807" vert-adv-y="1000"  />

      
      <glyph glyph-name="uniaa" unicode="&#xaa;" d="M163 383Q122 383 90 411.50Q58 440 58 485Q58 594 239 594L244 594L244 602Q244 638 197 638Q158 638 117 611L79 686Q132 725 217 725Q287 725 324.50 689Q362 653 362 590L362 390L254 390L254 429L252 429Q228 383 163 383M198 472Q216 472 229.50 486Q243 500 243 517L243 522L233 522Q175 522 175 492Q175 472 198 472M61 268L61 353L366 353L366 268L61 268Z"  horiz-adv-x="430" vert-adv-y="1000"  />

      
      <glyph glyph-name="uniab" unicode="&#xab;" d="M292 282L456 488L614 488L450 282L614 77L456 77L292 282M196 77L32 282L196 488L354 488L190 282L354 77L196 77Z"  horiz-adv-x="654" vert-adv-y="1000"  />

      
      <glyph glyph-name="uniac" unicode="&#xac;" d="M47 337L47 467L553 467L553 132L418 132L418 337L47 337Z"  horiz-adv-x="621" vert-adv-y="1000"  />

      
      <glyph glyph-name="uniad" unicode="&#xad;" d="M59 212L59 362L373 362L373 212L59 212Z"  horiz-adv-x="432" vert-adv-y="1000"  />

      
      <glyph glyph-name="uniae" unicode="&#xae;" d="M148.50 96.50Q148.50 96.50 95.75 150.75Q43 205 43 358Q43 511 148 618.50Q253 726 402 726Q553 726 659 618.50Q765 511 765 358Q765 205 659 96.50Q553-12 402-12Q254-12 148.50 96.50M156 358Q156 246 227 168.50Q298 91 402 91Q508 91 580.50 168.50Q653 246 653 358Q653 469 580.50 546Q508 623 402 623Q298 623 227 546Q156 469 156 358M272 187L272 534L435 534Q491 534 524 503Q557 472 557 419Q557 382 537.50 358.50Q518 335 499 330L499 328Q503 325 512 308L575 187L457 187L408 305L380 305L380 187L272 187M380 377L407 377Q447 377 447 419Q447 460 409 460L380 460L380 377Z"  horiz-adv-x="807" vert-adv-y="1000"  />

      
      <glyph glyph-name="uniaf" unicode="&#xaf;" d="M105 782L105 894L380 894L380 782L105 782Z"  horiz-adv-x="485" vert-adv-y="1000"  />

      
      <glyph glyph-name="unib0" unicode="&#xb0;" d="M219 385Q143 385 90.50 435Q38 485 38 557Q38 628 91 679Q144 730 219 730Q294 730 347 679Q400 628 400 557Q400 485 347 435Q294 385 219 385M180 520.50Q180 520.50 188 512.75Q196 505 219 505Q242 505 258 520.50Q274 536 274 558Q274 579 257.50 594.50Q241 610 219 610Q197 610 180.50 594.50Q164 579 164 558Q164 536 180 520.50Z"  horiz-adv-x="438" vert-adv-y="1000"  />

      
      <glyph glyph-name="unib1" unicode="&#xb1;" d="M27 222L27 352L232 352L232 575L368 575L368 352L573 352L573 222L368 222L368 0L232 0L232 222L27 222M37-70L563-70L563-200L37-200L37-70Z"  horiz-adv-x="600" vert-adv-y="1000"  />

      
      <glyph glyph-name="unib2" unicode="&#xb2;" d="M37 423Q32 451 32 472Q32 522 52.50 560Q73 598 102.50 619.50Q132 641 161 657.50Q190 674 210.50 690.50Q231 707 231 725Q231 741 218 750Q205 759 186 759Q151 759 115 714L32 785Q56 825 100.50 849.50Q145 874 195 874Q259 874 308.50 837.50Q358 801 358 731Q358 684 330.50 647.50Q303 611 269.50 594.50Q236 578 206 561Q176 544 173 531L364 531L364 423L37 423Z"  horiz-adv-x="400" vert-adv-y="1000"  />

      
      <glyph glyph-name="unib3" unicode="&#xb3;" d="M187 413Q85 413 27 481L88 571Q123 528 179 528Q204 528 218.50 540Q233 552 233 570Q233 588 215.50 597Q198 606 171 606L134 606L110 663L172 732L196 755L196 757Q175 755 162 755L52 755L52 864L346 864L346 785L263 694Q360 670 360 568Q360 506 314 459.50Q268 413 187 413Z"  horiz-adv-x="400" vert-adv-y="1000"  />

      
      <glyph glyph-name="unib4" unicode="&#xb4;" d="M116 761L197 911L368 911L250 761L116 761Z"  horiz-adv-x="484" vert-adv-y="1000"  />

      
      <glyph glyph-name="unib5" unicode="&#xb5;" d="M208-8Q216-56 216-96L216-200L69-200L69 515L242 515L242 213Q242 145 297 145Q350 145 378 185.50Q406 226 406 287L406 515L579 515L579 0L413 0L413 50L415 77L412 77Q410 73 406.50 67Q403 61 389.50 46Q376 31 359.50 19Q343 7 314-2.50Q285-12 252-12Q229-12 210-8L208-8Z"  horiz-adv-x="632" vert-adv-y="1000"  />

      
      <glyph glyph-name="uni03BC" unicode="&#x03BC;" d="M208-8Q216-56 216-96L216-200L69-200L69 515L242 515L242 213Q242 145 297 145Q350 145 378 185.50Q406 226 406 287L406 515L579 515L579 0L413 0L413 50L415 77L412 77Q410 73 406.50 67Q403 61 389.50 46Q376 31 359.50 19Q343 7 314-2.50Q285-12 252-12Q229-12 210-8L208-8Z"  horiz-adv-x="632" vert-adv-y="1000"  />

      
      <glyph glyph-name="unib6" unicode="&#xb6;" d="M265-50L265 241Q168 241 100 310Q32 379 32 479Q32 579 100 647Q168 715 265 715L622 715L622 565L385 565L385-50L265-50M447-50L447 515L567 515L567-50L447-50Z"  horiz-adv-x="671" vert-adv-y="1000"  />

      
      <glyph glyph-name="unib7" unicode="&#xb7;" d="M59 213L59 377L217 377L217 213L59 213Z"  horiz-adv-x="276" vert-adv-y="1000"  />

      
      <glyph glyph-name="unib8" unicode="&#xb8;" d="M164-82L199 29L271 12L271 5L261-36Q336-44 336-116Q336-166 302-188Q268-210 219-210Q182-210 148-201L148-114Q166-124 193-124Q231-124 231-101Q231-80 190-80L164-82Z"  horiz-adv-x="484" vert-adv-y="1000"  />

      
      <glyph glyph-name="unib9" unicode="&#xb9;" d="M57 423L57 531L146 531L146 674L149 706L147 706Q142 696 136 691L112 669L40 748L164 864L272 864L272 531L362 531L362 423L57 423Z"  horiz-adv-x="400" vert-adv-y="1000"  />

      
      <glyph glyph-name="uniba" unicode="&#xba;" d="M368 432.50Q368 432.50 341.50 408.75Q315 385 238 385Q161 385 108.50 432.50Q56 480 56 555Q56 630 108.50 677.50Q161 725 237 725Q315 725 368 677.50Q421 630 421 555Q421 480 368 432.50M193.50 506Q193.50 506 202.75 497Q212 488 238 488Q264 488 282.50 506Q301 524 301 555Q301 585 282.50 604Q264 623 238 623Q212 623 193.50 604Q175 585 175 555Q175 524 193.50 506M69 268L69 353L407 353L407 268L69 268Z"  horiz-adv-x="476" vert-adv-y="1000"  />

      
      <glyph glyph-name="unibb" unicode="&#xbb;" d="M300 77L464 282L300 488L458 488L622 282L458 77L300 77M40 77L204 282L40 488L198 488L362 282L198 77L40 77Z"  horiz-adv-x="654" vert-adv-y="1000"  />

      
      <glyph glyph-name="unibc" unicode="&#xbc;" d="M802 0L802 87L605 87L605 171L776 441L926 441L926 194L979 194L979 87L926 87L926 0L802 0M724 194L802 194L802 284L806 334L804 334Q795 307 783 288L724 196L724 194M394 0L275 0L611 715L730 715L394 0M53 274L53 382L142 382L142 525L145 557L143 557Q138 547 132 542L108 520L36 599L160 715L268 715L268 382L358 382L358 274L53 274Z"  horiz-adv-x="1013" vert-adv-y="1000"  />

      
      <glyph glyph-name="unibd" unicode="&#xbd;" d="M396 0L277 0L613 715L732 715L396 0M51 274L51 382L140 382L140 525L143 557L141 557Q136 547 130 542L106 520L34 599L158 715L266 715L266 382L356 382L356 274L51 274M640 0Q635 28 635 49Q635 99 655.50 137Q676 175 705 196.50Q734 218 763.50 234.50Q793 251 813.50 267.50Q834 284 834 302Q834 318 821 327Q808 336 789 336Q754 336 718 291L635 362Q659 402 703.50 426.50Q748 451 798 451Q862 451 911.50 414.50Q961 378 961 308Q961 261 933.50 224.50Q906 188 872.50 171.50Q839 155 809 138Q779 121 776 108L967 108L967 0L640 0Z"  horiz-adv-x="1004" vert-adv-y="1000"  />

      
      <glyph glyph-name="unibe" unicode="&#xbe;" d="M193 264Q91 264 33 332L94 422Q129 379 185 379Q210 379 224.50 391Q239 403 239 421Q239 439 221.50 448Q204 457 177 457L140 457L116 514L178 583L202 606L202 608Q181 606 168 606L58 606L58 715L352 715L352 636L269 545Q366 521 366 419Q366 357 320 310.50Q274 264 193 264M399 0L280 0L616 715L735 715L399 0M807 0L807 87L610 87L610 171L781 441L931 441L931 194L984 194L984 87L931 87L931 0L807 0M729 194L807 194L807 284L811 334L809 334Q800 307 788 288L729 196L729 194Z"  horiz-adv-x="1020" vert-adv-y="1000"  />

      
      <glyph glyph-name="unibf" unicode="&#xbf;" d="M371 294L371 244Q371 207 355 175.50Q339 144 315.50 123.50Q292 103 269 84.50Q246 66 230 45Q214 24 214 1Q214-24 235-41Q256-58 285-58Q331-58 380-15L476-132Q393-215 267-215Q175-215 104.50-162.50Q34-110 34-19Q34 26 51.50 63.50Q69 101 94.50 124.50Q120 148 145 168.50Q170 189 187.50 211.50Q205 234 205 258L205 294L371 294M367 515L367 365L209 365L209 515L367 515Z"  horiz-adv-x="503" vert-adv-y="1000"  />

      
      <glyph glyph-name="unic0" unicode="&#xc0;" d="M-3 0L240 715L424 715L667 0L487 0L443 150L220 150L177 0L-3 0M261 290L402 290L362 429L333 552L331 552Q315 474 302 429L261 290M270 761L152 911L323 911L404 761L270 761Z"  horiz-adv-x="664" vert-adv-y="1000"  />

      
      <glyph glyph-name="unic1" unicode="&#xc1;" d="M-3 0L240 715L424 715L667 0L487 0L443 150L220 150L177 0L-3 0M261 290L402 290L362 429L333 552L331 552Q315 474 302 429L261 290M260 761L341 911L512 911L394 761L260 761Z"  horiz-adv-x="664" vert-adv-y="1000"  />

      
      <glyph glyph-name="unic2" unicode="&#xc2;" d="M-3 0L240 715L424 715L667 0L487 0L443 150L220 150L177 0L-3 0M261 290L402 290L362 429L333 552L331 552Q315 474 302 429L261 290M149 761L248 911L416 911L515 761L380 761L333 843L331 843L284 761L149 761Z"  horiz-adv-x="664" vert-adv-y="1000"  />

      
      <glyph glyph-name="unic3" unicode="&#xc3;" d="M-3 0L240 715L424 715L667 0L487 0L443 150L220 150L177 0L-3 0M261 290L402 290L362 429L333 552L331 552Q315 474 302 429L261 290M131 761Q131 914 259 914Q288 914 311 899Q334 884 352 869Q370 854 385 854Q422 854 422 911L534 911Q534 758 406 758Q377 758 354 773Q331 788 313 803Q295 818 280 818Q243 818 243 761L131 761Z"  horiz-adv-x="664" vert-adv-y="1000"  />

      
      <glyph glyph-name="unic4" unicode="&#xc4;" d="M-3 0L240 715L424 715L667 0L487 0L443 150L220 150L177 0L-3 0M261 290L402 290L362 429L333 552L331 552Q315 474 302 429L261 290M374 771L374 911L500 911L500 771L374 771M165 771L165 911L291 911L291 771L165 771Z"  horiz-adv-x="664" vert-adv-y="1000"  />

      
      <glyph glyph-name="unic5" unicode="&#xc5;" d="M-3 0L240 715L424 715L667 0L487 0L443 150L220 150L177 0L-3 0M261 290L402 290L362 429L333 552L331 552Q315 474 302 429L261 290M409 769Q409 769 392.50 758Q376 747 332 747Q288 747 255.50 769Q223 791 223 832Q223 873 255.50 895.50Q288 918 332 918Q376 918 409 895.50Q442 873 442 832Q442 791 409 769M307 806.50Q307 806.50 311.50 801.75Q316 797 332 797Q348 797 357.50 806.50Q367 816 367 832Q367 848 357.50 858Q348 868 332 868Q317 868 307.50 858Q298 848 298 832Q298 816 307 806.50Z"  horiz-adv-x="664" vert-adv-y="1000"  />

      
      <glyph glyph-name="unic6" unicode="&#xc6;" d="M-10 0L289 715L899 715L899 565L626 565L626 435L844 435L844 285L626 285L626 150L912 150L912 0L451 0L451 288L283 288L172 0L-10 0M337 428L451 428L451 565L390 565L337 428Z"  horiz-adv-x="949" vert-adv-y="1000"  />

      
      <glyph glyph-name="unic7" unicode="&#xc7;" d="M334-82L357-9Q210 8 123.50 109.50Q37 211 37 359Q37 517 142.50 622Q248 727 412 727Q487 727 558 701.50Q629 676 680 626L599 494Q563 526 514.50 546.50Q466 567 420 567Q320 567 269 507.50Q218 448 218 363Q218 276 270.50 212Q323 148 420 148Q522 148 610 236L700 108Q594-2 437-11L431-36Q506-44 506-116Q506-166 472-188Q438-210 389-210Q352-210 318-201L318-114Q336-124 363-124Q401-124 401-101Q401-80 360-80L334-82Z"  horiz-adv-x="714" vert-adv-y="1000"  />

      
      <glyph glyph-name="unic8" unicode="&#xc8;" d="M75 0L75 715L523 715L523 565L250 565L250 435L468 435L468 285L250 285L250 150L537 150L537 0L75 0M245 761L127 911L298 911L379 761L245 761Z"  horiz-adv-x="574" vert-adv-y="1000"  />

      
      <glyph glyph-name="unic9" unicode="&#xc9;" d="M75 0L75 715L523 715L523 565L250 565L250 435L468 435L468 285L250 285L250 150L537 150L537 0L75 0M235 761L316 911L487 911L369 761L235 761Z"  horiz-adv-x="574" vert-adv-y="1000"  />

      
      <glyph glyph-name="unica" unicode="&#xca;" d="M75 0L75 715L523 715L523 565L250 565L250 435L468 435L468 285L250 285L250 150L537 150L537 0L75 0M124 761L223 911L391 911L490 761L355 761L308 843L306 843L259 761L124 761Z"  horiz-adv-x="574" vert-adv-y="1000"  />

      
      <glyph glyph-name="unicb" unicode="&#xcb;" d="M75 0L75 715L523 715L523 565L250 565L250 435L468 435L468 285L250 285L250 150L537 150L537 0L75 0M349 771L349 911L475 911L475 771L349 771M140 771L140 911L266 911L266 771L140 771Z"  horiz-adv-x="574" vert-adv-y="1000"  />

      
      <glyph glyph-name="unicc" unicode="&#xcc;" d="M75 0L75 715L250 715L250 0L75 0M101 761L-17 911L154 911L235 761L101 761Z"  horiz-adv-x="325" vert-adv-y="1000"  />

      
      <glyph glyph-name="unicd" unicode="&#xcd;" d="M75 0L75 715L250 715L250 0L75 0M91 761L172 911L343 911L225 761L91 761Z"  horiz-adv-x="325" vert-adv-y="1000"  />

      
      <glyph glyph-name="unice" unicode="&#xce;" d="M75 0L75 715L250 715L250 0L75 0M-20 761L79 911L247 911L346 761L211 761L164 843L162 843L115 761L-20 761Z"  horiz-adv-x="325" vert-adv-y="1000"  />

      
      <glyph glyph-name="unicf" unicode="&#xcf;" d="M75 0L75 715L250 715L250 0L75 0M205 771L205 911L331 911L331 771L205 771M-4 771L-4 911L122 911L122 771L-4 771Z"  horiz-adv-x="325" vert-adv-y="1000"  />

      
      <glyph glyph-name="unid0" unicode="&#xd0;" d="M80 0L80 284L23 284L23 424L80 424L80 715L334 715Q504 715 603.50 620.50Q703 526 703 359Q703 191 603.50 95.50Q504 0 334 0L80 0M255 150L327 150Q419 150 470.50 204Q522 258 522 359Q522 459 470 512Q418 565 327 565L255 565L255 424L359 424L359 284L255 284L255 150Z"  horiz-adv-x="742" vert-adv-y="1000"  />

      
      <glyph glyph-name="unid1" unicode="&#xd1;" d="M75 0L75 715L252 715L450 381Q462 360 477 329.50Q492 299 501 279L510 259L512 259Q504 336 504 381L504 715L679 715L679 0L503 0L304 333Q292 354 277 384.50Q262 415 253 435L244 455L242 455Q250 378 250 333L250 0L75 0M176 761Q176 914 304 914Q333 914 356 899Q379 884 397 869Q415 854 430 854Q467 854 467 911L579 911Q579 758 451 758Q422 758 399 773Q376 788 358 803Q340 818 325 818Q288 818 288 761L176 761Z"  horiz-adv-x="754" vert-adv-y="1000"  />

      
      <glyph glyph-name="unid2" unicode="&#xd2;" d="M36 362Q36 518 141 622.50Q246 727 410 727Q574 727 679 622.50Q784 518 784 362Q784 202 679 95Q574-12 410-12Q246-12 141 95Q36 202 36 362M217 362Q217 270 271.50 209Q326 148 410 148Q494 148 548.50 209Q603 270 603 362Q603 450 548.50 508.50Q494 567 410 567Q326 567 271.50 508.50Q217 450 217 362M348 761L230 911L401 911L482 761L348 761Z"  horiz-adv-x="820" vert-adv-y="1000"  />

      
      <glyph glyph-name="unid3" unicode="&#xd3;" d="M36 362Q36 518 141 622.50Q246 727 410 727Q574 727 679 622.50Q784 518 784 362Q784 202 679 95Q574-12 410-12Q246-12 141 95Q36 202 36 362M217 362Q217 270 271.50 209Q326 148 410 148Q494 148 548.50 209Q603 270 603 362Q603 450 548.50 508.50Q494 567 410 567Q326 567 271.50 508.50Q217 450 217 362M338 761L419 911L590 911L472 761L338 761Z"  horiz-adv-x="820" vert-adv-y="1000"  />

      
      <glyph glyph-name="unid4" unicode="&#xd4;" d="M36 362Q36 518 141 622.50Q246 727 410 727Q574 727 679 622.50Q784 518 784 362Q784 202 679 95Q574-12 410-12Q246-12 141 95Q36 202 36 362M217 362Q217 270 271.50 209Q326 148 410 148Q494 148 548.50 209Q603 270 603 362Q603 450 548.50 508.50Q494 567 410 567Q326 567 271.50 508.50Q217 450 217 362M227 761L326 911L494 911L593 761L458 761L411 843L409 843L362 761L227 761Z"  horiz-adv-x="820" vert-adv-y="1000"  />

      
      <glyph glyph-name="unid5" unicode="&#xd5;" d="M36 362Q36 518 141 622.50Q246 727 410 727Q574 727 679 622.50Q784 518 784 362Q784 202 679 95Q574-12 410-12Q246-12 141 95Q36 202 36 362M217 362Q217 270 271.50 209Q326 148 410 148Q494 148 548.50 209Q603 270 603 362Q603 450 548.50 508.50Q494 567 410 567Q326 567 271.50 508.50Q217 450 217 362M209 761Q209 914 337 914Q366 914 389 899Q412 884 430 869Q448 854 463 854Q500 854 500 911L612 911Q612 758 484 758Q455 758 432 773Q409 788 391 803Q373 818 358 818Q321 818 321 761L209 761Z"  horiz-adv-x="820" vert-adv-y="1000"  />

      
      <glyph glyph-name="unid6" unicode="&#xd6;" d="M36 362Q36 518 141 622.50Q246 727 410 727Q574 727 679 622.50Q784 518 784 362Q784 202 679 95Q574-12 410-12Q246-12 141 95Q36 202 36 362M217 362Q217 270 271.50 209Q326 148 410 148Q494 148 548.50 209Q603 270 603 362Q603 450 548.50 508.50Q494 567 410 567Q326 567 271.50 508.50Q217 450 217 362M452 771L452 911L578 911L578 771L452 771M243 771L243 911L369 911L369 771L243 771Z"  horiz-adv-x="820" vert-adv-y="1000"  />

      
      <glyph glyph-name="unid7" unicode="&#xd7;" d="M28 92L210 287L28 483L120 575L299 383L479 575L571 483L388 287L571 92L479 0L299 192L120 0L28 92Z"  horiz-adv-x="600" vert-adv-y="1000"  />

      
      <glyph glyph-name="unid8" unicode="&#xd8;" d="M104 20L152 86Q36 194 36 362Q36 517 142.50 622Q249 727 410 727Q508 727 586 687L627 743L697 696L657 641Q784 533 784 362Q784 203 677.50 95.50Q571-12 410-12Q305-12 220 36L174-28L104 20M256 230L488 550Q451 567 410 567Q329 567 273 508.50Q217 450 217 362Q217 285 256 230M318 172Q361 148 410 148Q491 148 547 209Q603 270 603 362Q603 443 555 499L318 172Z"  horiz-adv-x="819" vert-adv-y="1000"  />

      
      <glyph glyph-name="unid9" unicode="&#xd9;" d="M67 263L67 715L242 715L242 263Q242 208 275.50 178Q309 148 366 148Q423 148 456.50 178Q490 208 490 263L490 715L665 715L665 263Q665 141 583 64.50Q501-12 367-12Q232-12 149.50 64.50Q67 141 67 263M304 761L186 911L357 911L438 761L304 761Z"  horiz-adv-x="732" vert-adv-y="1000"  />

      
      <glyph glyph-name="unida" unicode="&#xda;" d="M67 263L67 715L242 715L242 263Q242 208 275.50 178Q309 148 366 148Q423 148 456.50 178Q490 208 490 263L490 715L665 715L665 263Q665 141 583 64.50Q501-12 367-12Q232-12 149.50 64.50Q67 141 67 263M294 761L375 911L546 911L428 761L294 761Z"  horiz-adv-x="732" vert-adv-y="1000"  />

      
      <glyph glyph-name="unidb" unicode="&#xdb;" d="M67 263L67 715L242 715L242 263Q242 208 275.50 178Q309 148 366 148Q423 148 456.50 178Q490 208 490 263L490 715L665 715L665 263Q665 141 583 64.50Q501-12 367-12Q232-12 149.50 64.50Q67 141 67 263M183 761L282 911L450 911L549 761L414 761L367 843L365 843L318 761L183 761Z"  horiz-adv-x="732" vert-adv-y="1000"  />

      
      <glyph glyph-name="unidc" unicode="&#xdc;" d="M67 263L67 715L242 715L242 263Q242 208 275.50 178Q309 148 366 148Q423 148 456.50 178Q490 208 490 263L490 715L665 715L665 263Q665 141 583 64.50Q501-12 367-12Q232-12 149.50 64.50Q67 141 67 263M408 771L408 911L534 911L534 771L408 771M199 771L199 911L325 911L325 771L199 771Z"  horiz-adv-x="732" vert-adv-y="1000"  />

      
      <glyph glyph-name="unidd" unicode="&#xdd;" d="M226 0L226 293L-10 715L189 715L270 543L313 440L315 440Q335 494 358 543L438 715L637 715L401 293L401 0L226 0M242 761L323 911L494 911L376 761L242 761Z"  horiz-adv-x="627" vert-adv-y="1000"  />

      
      <glyph glyph-name="unide" unicode="&#xde;" d="M75 0L75 715L250 715L250 609L372 609Q476 609 540.50 540Q605 471 605 363Q605 254 540.50 184.50Q476 115 372 115L250 115L250 0L75 0M250 265L336 265Q380 265 403.50 292Q427 319 427 363Q427 407 404 433Q381 459 339 459L250 459L250 265Z"  horiz-adv-x="629" vert-adv-y="1000"  />

      
      <glyph glyph-name="unidf" unicode="&#xdf;" d="M58 0L58 527Q58 621 133 674Q208 727 313 727Q407 727 475.50 672.50Q544 618 544 534Q544 500 526 471.50Q508 443 490 419.50Q472 396 472 374Q472 358 493 338.50Q514 319 539 300.50Q564 282 585 246.50Q606 211 606 168Q606 84 550 38.50Q494-7 412-7Q334-7 288 14L288 156Q338 137 383 137Q433 137 433 179Q433 194 412 213Q391 232 365.50 250Q340 268 319 300Q298 332 298 370Q298 401 316 430Q334 459 352 484Q370 509 370 530Q370 554 353.50 568.50Q337 583 308 583Q231 583 231 515L231 0L58 0Z"  horiz-adv-x="624" vert-adv-y="1000"  />

      
      <glyph glyph-name="unie0" unicode="&#xe0;" d="M22 145Q22 194 49 230Q76 266 120.50 285Q165 304 213 312.50Q261 321 313 321L328 321L328 330Q328 387 255 387Q187 387 113 338L53 460Q88 487 149.50 507Q211 527 271 527Q378 527 439.50 471Q501 415 501 317L501 0L343 0L343 31L345 63L343 63Q318 28 276.50 8Q235-12 190-12Q116-12 69 33Q22 78 22 145M193 161Q193 142 206 129.50Q219 117 242 117Q278 117 304 146Q330 175 330 208L330 222L314 222Q266 222 229.50 207.50Q193 193 193 161M215 565L97 715L268 715L349 565L215 565Z"  horiz-adv-x="553" vert-adv-y="1000"  />

      
      <glyph glyph-name="unie1" unicode="&#xe1;" d="M22 145Q22 194 49 230Q76 266 120.50 285Q165 304 213 312.50Q261 321 313 321L328 321L328 330Q328 387 255 387Q187 387 113 338L53 460Q88 487 149.50 507Q211 527 271 527Q378 527 439.50 471Q501 415 501 317L501 0L343 0L343 31L345 63L343 63Q318 28 276.50 8Q235-12 190-12Q116-12 69 33Q22 78 22 145M193 161Q193 142 206 129.50Q219 117 242 117Q278 117 304 146Q330 175 330 208L330 222L314 222Q266 222 229.50 207.50Q193 193 193 161M204 565L285 715L456 715L338 565L204 565Z"  horiz-adv-x="553" vert-adv-y="1000"  />

      
      <glyph glyph-name="unie2" unicode="&#xe2;" d="M22 145Q22 194 49 230Q76 266 120.50 285Q165 304 213 312.50Q261 321 313 321L328 321L328 330Q328 387 255 387Q187 387 113 338L53 460Q88 487 149.50 507Q211 527 271 527Q378 527 439.50 471Q501 415 501 317L501 0L343 0L343 31L345 63L343 63Q318 28 276.50 8Q235-12 190-12Q116-12 69 33Q22 78 22 145M193 161Q193 142 206 129.50Q219 117 242 117Q278 117 304 146Q330 175 330 208L330 222L314 222Q266 222 229.50 207.50Q193 193 193 161M93 565L192 715L360 715L459 565L324 565L277 647L275 647L228 565L93 565Z"  horiz-adv-x="553" vert-adv-y="1000"  />

      
      <glyph glyph-name="unie3" unicode="&#xe3;" d="M22 145Q22 194 49 230Q76 266 120.50 285Q165 304 213 312.50Q261 321 313 321L328 321L328 330Q328 387 255 387Q187 387 113 338L53 460Q88 487 149.50 507Q211 527 271 527Q378 527 439.50 471Q501 415 501 317L501 0L343 0L343 31L345 63L343 63Q318 28 276.50 8Q235-12 190-12Q116-12 69 33Q22 78 22 145M193 161Q193 142 206 129.50Q219 117 242 117Q278 117 304 146Q330 175 330 208L330 222L314 222Q266 222 229.50 207.50Q193 193 193 161M75 565Q75 718 203 718Q232 718 255 703Q278 688 296 673Q314 658 329 658Q366 658 366 715L478 715Q478 562 350 562Q321 562 298 577Q275 592 257 607Q239 622 224 622Q187 622 187 565L75 565Z"  horiz-adv-x="553" vert-adv-y="1000"  />

      
      <glyph glyph-name="unie4" unicode="&#xe4;" d="M22 145Q22 194 49 230Q76 266 120.50 285Q165 304 213 312.50Q261 321 313 321L328 321L328 330Q328 387 255 387Q187 387 113 338L53 460Q88 487 149.50 507Q211 527 271 527Q378 527 439.50 471Q501 415 501 317L501 0L343 0L343 31L345 63L343 63Q318 28 276.50 8Q235-12 190-12Q116-12 69 33Q22 78 22 145M193 161Q193 142 206 129.50Q219 117 242 117Q278 117 304 146Q330 175 330 208L330 222L314 222Q266 222 229.50 207.50Q193 193 193 161M318 575L318 715L444 715L444 575L318 575M109 575L109 715L235 715L235 575L109 575Z"  horiz-adv-x="553" vert-adv-y="1000"  />

      
      <glyph glyph-name="unie5" unicode="&#xe5;" d="M22 145Q22 194 49 230Q76 266 120.50 285Q165 304 213 312.50Q261 321 313 321L328 321L328 330Q328 387 255 387Q187 387 113 338L53 460Q88 487 149.50 507Q211 527 271 527Q378 527 439.50 471Q501 415 501 317L501 0L343 0L343 31L345 63L343 63Q318 28 276.50 8Q235-12 190-12Q116-12 69 33Q22 78 22 145M193 161Q193 142 206 129.50Q219 117 242 117Q278 117 304 146Q330 175 330 208L330 222L314 222Q266 222 229.50 207.50Q193 193 193 161M353 573Q353 573 336.50 562Q320 551 276 551Q232 551 199.50 573Q167 595 167 636Q167 677 199.50 699.50Q232 722 276 722Q320 722 353 699.50Q386 677 386 636Q386 595 353 573M251 610.50Q251 610.50 255.50 605.75Q260 601 276 601Q292 601 301.50 610.50Q311 620 311 636Q311 652 301.50 662Q292 672 276 672Q261 672 251.50 662Q242 652 242 636Q242 620 251 610.50Z"  horiz-adv-x="553" vert-adv-y="1000"  />

      
      <glyph glyph-name="unie6" unicode="&#xe6;" d="M22 154Q22 198 46 230.50Q70 263 103.50 280Q137 297 182.50 307.50Q228 318 260 320.50Q292 323 324 323L328 323L328 330Q328 387 252 387Q187 387 112 338L52 459Q88 488 148 507.50Q208 527 265 527Q371 527 428 476L430 476Q492 527 584 527Q692 527 757 455.50Q822 384 822 273Q822 260 818 224L493 224Q502 178 535.50 155Q569 132 613 132Q685 132 755 183L819 63Q781 29 720 8.50Q659-12 599-12Q466-12 392 78L390 78Q374 49 325 19Q276-11 197-11Q123-11 72.50 34.50Q22 80 22 154M497 323L648 323Q648 352 630 374.50Q612 397 584 397Q516 397 497 323M196 163Q196 120 247 120Q281 120 306 149.50Q331 179 331 212L331 224L314 224Q268 224 232 208Q196 192 196 163Z"  horiz-adv-x="853" vert-adv-y="1000"  />

      
      <glyph glyph-name="unie7" unicode="&#xe7;" d="M235-82L258-7Q151 10 90 84.50Q29 159 29 258Q29 368 106.50 447.50Q184 527 316 527Q374 527 429.50 507.50Q485 488 521 449L448 333Q396 383 327 383Q269 383 236.50 346.50Q204 310 204 260Q204 209 238 170.50Q272 132 333 132Q402 132 474 194L537 73Q463-3 338-11L332-36Q407-44 407-116Q407-166 373-188Q339-210 290-210Q253-210 219-201L219-114Q237-124 264-124Q302-124 302-101Q302-80 261-80L235-82Z"  horiz-adv-x="552" vert-adv-y="1000"  />

      
      <glyph glyph-name="unie8" unicode="&#xe8;" d="M29 258Q29 374 102 450.50Q175 527 297 527Q408 527 471.50 457.50Q535 388 535 278Q535 260 531 224L206 224Q215 179 248.50 155.50Q282 132 326 132Q390 132 468 184L532 63Q491 28 431.50 8Q372-12 312-12Q181-12 105 68Q29 148 29 258M210 323L364 323Q364 356 344.50 378Q325 400 293 400Q227 400 210 323M232 565L114 715L285 715L366 565L232 565Z"  horiz-adv-x="567" vert-adv-y="1000"  />

      
      <glyph glyph-name="unie9" unicode="&#xe9;" d="M29 258Q29 374 102 450.50Q175 527 297 527Q408 527 471.50 457.50Q535 388 535 278Q535 260 531 224L206 224Q215 179 248.50 155.50Q282 132 326 132Q390 132 468 184L532 63Q491 28 431.50 8Q372-12 312-12Q181-12 105 68Q29 148 29 258M210 323L364 323Q364 356 344.50 378Q325 400 293 400Q227 400 210 323M221 565L302 715L473 715L355 565L221 565Z"  horiz-adv-x="567" vert-adv-y="1000"  />

      
      <glyph glyph-name="uniea" unicode="&#xea;" d="M29 258Q29 374 102 450.50Q175 527 297 527Q408 527 471.50 457.50Q535 388 535 278Q535 260 531 224L206 224Q215 179 248.50 155.50Q282 132 326 132Q390 132 468 184L532 63Q491 28 431.50 8Q372-12 312-12Q181-12 105 68Q29 148 29 258M210 323L364 323Q364 356 344.50 378Q325 400 293 400Q227 400 210 323M110 565L209 715L377 715L476 565L341 565L294 647L292 647L245 565L110 565Z"  horiz-adv-x="567" vert-adv-y="1000"  />

      
      <glyph glyph-name="unieb" unicode="&#xeb;" d="M29 258Q29 374 102 450.50Q175 527 297 527Q408 527 471.50 457.50Q535 388 535 278Q535 260 531 224L206 224Q215 179 248.50 155.50Q282 132 326 132Q390 132 468 184L532 63Q491 28 431.50 8Q372-12 312-12Q181-12 105 68Q29 148 29 258M210 323L364 323Q364 356 344.50 378Q325 400 293 400Q227 400 210 323M335 575L335 715L461 715L461 575L335 575M126 575L126 715L252 715L252 575L126 575Z"  horiz-adv-x="567" vert-adv-y="1000"  />

      
      <glyph glyph-name="uniec" unicode="&#xec;" d="M58 0L58 515L231 515L231 0L58 0M82 565L-36 715L135 715L216 565L82 565Z"  horiz-adv-x="289" vert-adv-y="1000"  />

      
      <glyph glyph-name="unied" unicode="&#xed;" d="M58 0L58 515L231 515L231 0L58 0M72 565L153 715L324 715L206 565L72 565Z"  horiz-adv-x="289" vert-adv-y="1000"  />

      
      <glyph glyph-name="uniee" unicode="&#xee;" d="M58 0L58 515L231 515L231 0L58 0M-39 565L60 715L228 715L327 565L192 565L145 647L143 647L96 565L-39 565Z"  horiz-adv-x="289" vert-adv-y="1000"  />

      
      <glyph glyph-name="unief" unicode="&#xef;" d="M58 0L58 515L231 515L231 0L58 0M186 575L186 715L312 715L312 575L186 575M-23 575L-23 715L103 715L103 575L-23 575Z"  horiz-adv-x="289" vert-adv-y="1000"  />

      
      <glyph glyph-name="unif0" unicode="&#xf0;" d="M30 241Q30 332 93.50 398Q157 464 261 464Q278 464 295.50 462Q313 460 322 458L330 455L332 455Q307 493 262 518L70 439L70 534L162 573Q110 595 67 603L115 738Q247 710 347 649L508 716L508 621L427 587Q554 465 554 283Q554 240 545.50 199.50Q537 159 516.50 120Q496 81 466 52Q436 23 389 5.50Q342-12 284-12Q168-12 99 63Q30 138 30 241M204 236Q204 192 224 162Q244 132 287 132Q335 132 357.50 166.50Q380 201 380 250Q380 287 358 309.50Q336 332 297 332Q252 332 228 304.50Q204 277 204 236Z"  horiz-adv-x="587" vert-adv-y="1000"  />

      
      <glyph glyph-name="unif1" unicode="&#xf1;" d="M58 0L58 515L224 515L224 470L222 438L224 438Q277 527 388 527Q573 527 573 334L573 0L400 0L400 302Q400 370 343 370Q288 370 259.50 331Q231 292 231 233L231 0L58 0M118 565Q118 718 246 718Q275 718 298 703Q321 688 339 673Q357 658 372 658Q409 658 409 715L521 715Q521 562 393 562Q364 562 341 577Q318 592 300 607Q282 622 267 622Q230 622 230 565L118 565Z"  horiz-adv-x="626" vert-adv-y="1000"  />

      
      <glyph glyph-name="unif2" unicode="&#xf2;" d="M113 62.50Q113 62.50 71 99.75Q29 137 29 256Q29 375 113 451Q197 527 320 527Q444 527 528.50 451.50Q613 376 613 256Q613 137 529 62.50Q445-12 321-12Q197-12 113 62.50M204 256Q204 200 238 166Q272 132 321 132Q370 132 404 166Q438 200 438 256Q438 313 404 348Q370 383 321 383Q272 383 238 348Q204 313 204 256M259 565L141 715L312 715L393 565L259 565Z"  horiz-adv-x="642" vert-adv-y="1000"  />

      
      <glyph glyph-name="unif3" unicode="&#xf3;" d="M113 62.50Q113 62.50 71 99.75Q29 137 29 256Q29 375 113 451Q197 527 320 527Q444 527 528.50 451.50Q613 376 613 256Q613 137 529 62.50Q445-12 321-12Q197-12 113 62.50M204 256Q204 200 238 166Q272 132 321 132Q370 132 404 166Q438 200 438 256Q438 313 404 348Q370 383 321 383Q272 383 238 348Q204 313 204 256M249 565L330 715L501 715L383 565L249 565Z"  horiz-adv-x="642" vert-adv-y="1000"  />

      
      <glyph glyph-name="unif4" unicode="&#xf4;" d="M113 62.50Q113 62.50 71 99.75Q29 137 29 256Q29 375 113 451Q197 527 320 527Q444 527 528.50 451.50Q613 376 613 256Q613 137 529 62.50Q445-12 321-12Q197-12 113 62.50M204 256Q204 200 238 166Q272 132 321 132Q370 132 404 166Q438 200 438 256Q438 313 404 348Q370 383 321 383Q272 383 238 348Q204 313 204 256M138 565L237 715L405 715L504 565L369 565L322 647L320 647L273 565L138 565Z"  horiz-adv-x="642" vert-adv-y="1000"  />

      
      <glyph glyph-name="unif5" unicode="&#xf5;" d="M113 62.50Q113 62.50 71 99.75Q29 137 29 256Q29 375 113 451Q197 527 320 527Q444 527 528.50 451.50Q613 376 613 256Q613 137 529 62.50Q445-12 321-12Q197-12 113 62.50M204 256Q204 200 238 166Q272 132 321 132Q370 132 404 166Q438 200 438 256Q438 313 404 348Q370 383 321 383Q272 383 238 348Q204 313 204 256M120 565Q120 718 248 718Q277 718 300 703Q323 688 341 673Q359 658 374 658Q411 658 411 715L523 715Q523 562 395 562Q366 562 343 577Q320 592 302 607Q284 622 269 622Q232 622 232 565L120 565Z"  horiz-adv-x="642" vert-adv-y="1000"  />

      
      <glyph glyph-name="unif6" unicode="&#xf6;" d="M113 62.50Q113 62.50 71 99.75Q29 137 29 256Q29 375 113 451Q197 527 320 527Q444 527 528.50 451.50Q613 376 613 256Q613 137 529 62.50Q445-12 321-12Q197-12 113 62.50M204 256Q204 200 238 166Q272 132 321 132Q370 132 404 166Q438 200 438 256Q438 313 404 348Q370 383 321 383Q272 383 238 348Q204 313 204 256M363 575L363 715L489 715L489 575L363 575M154 575L154 715L280 715L280 575L154 575Z"  horiz-adv-x="642" vert-adv-y="1000"  />

      
      <glyph glyph-name="unif7" unicode="&#xf7;" d="M227 440L227 575L373 575L373 440L227 440M27 222L27 352L573 352L573 222L27 222M227 0L227 135L373 135L373 0L227 0Z"  horiz-adv-x="600" vert-adv-y="1000"  />

      
      <glyph glyph-name="unif8" unicode="&#xf8;" d="M87-4L126 51Q29 127 29 256Q29 375 113 451Q197 527 320 527Q390 527 451 501L493 559L559 514L519 459Q613 381 613 256Q613 137 529 62.50Q445-12 321-12Q254-12 197 11L153-50L87-4M223 185L361 376Q338 383 321 383Q272 383 238 348Q204 313 204 256Q204 215 223 185M287 136Q302 132 321 132Q370 132 404 166Q438 200 438 256Q438 293 422 323L287 136Z"  horiz-adv-x="642" vert-adv-y="1000"  />

      
      <glyph glyph-name="unif9" unicode="&#xf9;" d="M53 181L53 515L226 515L226 213Q226 145 281 145Q334 145 362 185.50Q390 226 390 287L390 515L563 515L563 0L397 0L397 45L399 77L397 77Q376 36 332 12Q288-12 236-12Q152-12 102.50 33.50Q53 79 53 181M246 565L128 715L299 715L380 565L246 565Z"  horiz-adv-x="621" vert-adv-y="1000"  />

      
      <glyph glyph-name="unifa" unicode="&#xfa;" d="M53 181L53 515L226 515L226 213Q226 145 281 145Q334 145 362 185.50Q390 226 390 287L390 515L563 515L563 0L397 0L397 45L399 77L397 77Q376 36 332 12Q288-12 236-12Q152-12 102.50 33.50Q53 79 53 181M236 565L317 715L488 715L370 565L236 565Z"  horiz-adv-x="621" vert-adv-y="1000"  />

      
      <glyph glyph-name="unifb" unicode="&#xfb;" d="M53 181L53 515L226 515L226 213Q226 145 281 145Q334 145 362 185.50Q390 226 390 287L390 515L563 515L563 0L397 0L397 45L399 77L397 77Q376 36 332 12Q288-12 236-12Q152-12 102.50 33.50Q53 79 53 181M125 565L224 715L392 715L491 565L356 565L309 647L307 647L260 565L125 565Z"  horiz-adv-x="621" vert-adv-y="1000"  />

      
      <glyph glyph-name="unifc" unicode="&#xfc;" d="M53 181L53 515L226 515L226 213Q226 145 281 145Q334 145 362 185.50Q390 226 390 287L390 515L563 515L563 0L397 0L397 45L399 77L397 77Q376 36 332 12Q288-12 236-12Q152-12 102.50 33.50Q53 79 53 181M350 575L350 715L476 715L476 575L350 575M141 575L141 715L267 715L267 575L141 575Z"  horiz-adv-x="621" vert-adv-y="1000"  />

      
      <glyph glyph-name="unifd" unicode="&#xfd;" d="M63-47Q91-66 116-66Q178-66 199-14L209 10L-10 515L186 515L262 278L281 198L283 198Q293 247 300 275L365 515L554 515L343-55Q313-135 254.50-172.50Q196-210 128-210Q98-210 68-201Q38-192 23-183L8-174L63-47M210 564L291 714L462 714L344 564L210 564Z"  horiz-adv-x="561" vert-adv-y="1000"  />

      
      <glyph glyph-name="unife" unicode="&#xfe;" d="M58-200L58 715L231 715L231 518L229 474L231 474Q279 527 365 527Q470 527 535.50 450.50Q601 374 601 258Q601 142 535.50 65Q470-12 365-12Q274-12 231 36L229 36Q231 18 231-8L231-200L58-200M226 257Q226 132 330 132Q374 132 400.50 168.50Q427 205 427 258Q427 311 400.50 347Q374 383 330 383Q226 383 226 257Z"  horiz-adv-x="631" vert-adv-y="1000"  />

      
      <glyph glyph-name="uniff" unicode="&#xff;" d="M63-47Q91-66 116-66Q178-66 199-14L209 10L-10 515L186 515L262 278L281 198L283 198Q293 247 300 275L365 515L554 515L343-55Q313-135 254.50-172.50Q196-210 128-210Q98-210 68-201Q38-192 23-183L8-174L63-47M324 574L324 714L450 714L450 574L324 574M115 574L115 714L241 714L241 574L115 574Z"  horiz-adv-x="561" vert-adv-y="1000"  />

      
      <glyph glyph-name="uni0100" unicode="&#x0100;" d="M-3 0L240 715L424 715L667 0L487 0L443 150L220 150L177 0L-3 0M261 290L402 290L362 429L333 552L331 552Q315 474 302 429L261 290M195 782L195 894L470 894L470 782L195 782Z"  horiz-adv-x="664" vert-adv-y="1000"  />

      
      <glyph glyph-name="uni0101" unicode="&#x0101;" d="M22 145Q22 194 49 230Q76 266 120.50 285Q165 304 213 312.50Q261 321 313 321L328 321L328 330Q328 387 255 387Q187 387 113 338L53 460Q88 487 149.50 507Q211 527 271 527Q378 527 439.50 471Q501 415 501 317L501 0L343 0L343 31L345 63L343 63Q318 28 276.50 8Q235-12 190-12Q116-12 69 33Q22 78 22 145M193 161Q193 142 206 129.50Q219 117 242 117Q278 117 304 146Q330 175 330 208L330 222L314 222Q266 222 229.50 207.50Q193 193 193 161M139 586L139 698L414 698L414 586L139 586Z"  horiz-adv-x="553" vert-adv-y="1000"  />

      
      <glyph glyph-name="uni0102" unicode="&#x0102;" d="M-3 0L240 715L424 715L667 0L487 0L443 150L220 150L177 0L-3 0M261 290L402 290L362 429L333 552L331 552Q315 474 302 429L261 290M455.50 795Q455.50 795 430.25 775.50Q405 756 332 756Q259 756 208.50 795Q158 834 158 901L158 911L275 911L275 900Q275 872 292 857Q309 842 332 842Q355 842 372 857Q389 872 389 900L389 911L506 911L506 901Q506 834 455.50 795Z"  horiz-adv-x="664" vert-adv-y="1000"  />

      
      <glyph glyph-name="uni0103" unicode="&#x0103;" d="M22 145Q22 194 49 230Q76 266 120.50 285Q165 304 213 312.50Q261 321 313 321L328 321L328 330Q328 387 255 387Q187 387 113 338L53 460Q88 487 149.50 507Q211 527 271 527Q378 527 439.50 471Q501 415 501 317L501 0L343 0L343 31L345 63L343 63Q318 28 276.50 8Q235-12 190-12Q116-12 69 33Q22 78 22 145M193 161Q193 142 206 129.50Q219 117 242 117Q278 117 304 146Q330 175 330 208L330 222L314 222Q266 222 229.50 207.50Q193 193 193 161M399.50 599Q399.50 599 374.25 579.50Q349 560 276 560Q203 560 152.50 599Q102 638 102 705L102 715L219 715L219 704Q219 676 236 661Q253 646 276 646Q299 646 316 661Q333 676 333 704L333 715L450 715L450 705Q450 638 399.50 599Z"  horiz-adv-x="553" vert-adv-y="1000"  />

      
      <glyph glyph-name="uni0104" unicode="&#x0104;" d="M-3 0L240 715L424 715L667 0Q624-40 624-61Q624-71 633.50-77Q643-83 652-84L662-86L620-210Q615-209 606-208Q597-207 574-200Q551-193 533.50-183Q516-173 501.50-154Q487-135 487-111Q487-55 551 0L487 0L443 150L220 150L177 0L-3 0M261 290L402 290L362 429L333 552L331 552Q315 474 302 429L261 290Z"  horiz-adv-x="664" vert-adv-y="1000"  />

      
      <glyph glyph-name="uni0105" unicode="&#x0105;" d="M22 145Q22 194 49 230Q76 266 120.50 285Q165 304 213 312.50Q261 321 313 321L328 321L328 330Q328 387 255 387Q187 387 113 338L53 460Q88 487 149.50 507Q211 527 271 527Q378 527 439.50 471Q501 415 501 317L501 0Q458-40 458-61Q458-71 467.50-77Q477-83 486-84L496-86L454-210Q449-209 440-208Q431-207 408-200Q385-193 367.50-183Q350-173 335.50-154Q321-135 321-111Q321-55 385 0L343 0L343 31L345 63L343 63Q318 28 276.50 8Q235-12 190-12Q116-12 69 33Q22 78 22 145M193 161Q193 142 206 129.50Q219 117 242 117Q278 117 304 146Q330 175 330 208L330 222L314 222Q266 222 229.50 207.50Q193 193 193 161Z"  horiz-adv-x="553" vert-adv-y="1000"  />

      
      <glyph glyph-name="uni0106" unicode="&#x0106;" d="M37 359Q37 517 142.50 622Q248 727 412 727Q487 727 558 701.50Q629 676 680 626L599 494Q563 526 514.50 546.50Q466 567 420 567Q320 567 269 507.50Q218 448 218 363Q218 276 270.50 212Q323 148 420 148Q522 148 610 236L700 108Q584-12 412-12Q242-12 139.50 92.50Q37 197 37 359M330 761L411 911L582 911L464 761L330 761Z"  horiz-adv-x="714" vert-adv-y="1000"  />

      
      <glyph glyph-name="uni0107" unicode="&#x0107;" d="M29 258Q29 368 106.50 447.50Q184 527 316 527Q374 527 429.50 507.50Q485 488 521 449L448 333Q396 383 327 383Q269 383 236.50 346.50Q204 310 204 260Q204 209 238 170.50Q272 132 333 132Q402 132 474 194L537 73Q499 34 439.50 11Q380-12 316-12Q184-12 106.50 67Q29 146 29 258M224 565L305 715L476 715L358 565L224 565Z"  horiz-adv-x="552" vert-adv-y="1000"  />

      
      <glyph glyph-name="uni0108" unicode="&#x0108;" d="M37 359Q37 517 142.50 622Q248 727 412 727Q487 727 558 701.50Q629 676 680 626L599 494Q563 526 514.50 546.50Q466 567 420 567Q320 567 269 507.50Q218 448 218 363Q218 276 270.50 212Q323 148 420 148Q522 148 610 236L700 108Q584-12 412-12Q242-12 139.50 92.50Q37 197 37 359M219 761L318 911L486 911L585 761L450 761L403 843L401 843L354 761L219 761Z"  horiz-adv-x="714" vert-adv-y="1000"  />

      
      <glyph glyph-name="uni0109" unicode="&#x0109;" d="M29 258Q29 368 106.50 447.50Q184 527 316 527Q374 527 429.50 507.50Q485 488 521 449L448 333Q396 383 327 383Q269 383 236.50 346.50Q204 310 204 260Q204 209 238 170.50Q272 132 333 132Q402 132 474 194L537 73Q499 34 439.50 11Q380-12 316-12Q184-12 106.50 67Q29 146 29 258M113 565L212 715L380 715L479 565L344 565L297 647L295 647L248 565L113 565Z"  horiz-adv-x="552" vert-adv-y="1000"  />

      
      <glyph glyph-name="uni010A" unicode="&#x010A;" d="M37 359Q37 517 142.50 622Q248 727 412 727Q487 727 558 701.50Q629 676 680 626L599 494Q563 526 514.50 546.50Q466 567 420 567Q320 567 269 507.50Q218 448 218 363Q218 276 270.50 212Q323 148 420 148Q522 148 610 236L700 108Q584-12 412-12Q242-12 139.50 92.50Q37 197 37 359M331 779L331 911L474 911L474 779L331 779Z"  horiz-adv-x="714" vert-adv-y="1000"  />

      
      <glyph glyph-name="uni010B" unicode="&#x010B;" d="M29 258Q29 368 106.50 447.50Q184 527 316 527Q374 527 429.50 507.50Q485 488 521 449L448 333Q396 383 327 383Q269 383 236.50 346.50Q204 310 204 260Q204 209 238 170.50Q272 132 333 132Q402 132 474 194L537 73Q499 34 439.50 11Q380-12 316-12Q184-12 106.50 67Q29 146 29 258M225 583L225 715L368 715L368 583L225 583Z"  horiz-adv-x="552" vert-adv-y="1000"  />

      
      <glyph glyph-name="uni010C" unicode="&#x010C;" d="M37 359Q37 517 142.50 622Q248 727 412 727Q487 727 558 701.50Q629 676 680 626L599 494Q563 526 514.50 546.50Q466 567 420 567Q320 567 269 507.50Q218 448 218 363Q218 276 270.50 212Q323 148 420 148Q522 148 610 236L700 108Q584-12 412-12Q242-12 139.50 92.50Q37 197 37 359M318 761L219 911L354 911L401 829L403 829L450 911L585 911L486 761L318 761Z"  horiz-adv-x="714" vert-adv-y="1000"  />

      
      <glyph glyph-name="uni010D" unicode="&#x010D;" d="M29 258Q29 368 106.50 447.50Q184 527 316 527Q374 527 429.50 507.50Q485 488 521 449L448 333Q396 383 327 383Q269 383 236.50 346.50Q204 310 204 260Q204 209 238 170.50Q272 132 333 132Q402 132 474 194L537 73Q499 34 439.50 11Q380-12 316-12Q184-12 106.50 67Q29 146 29 258M212 565L113 715L248 715L295 633L297 633L344 715L479 715L380 565L212 565Z"  horiz-adv-x="552" vert-adv-y="1000"  />

      
      <glyph glyph-name="uni010E" unicode="&#x010E;" d="M75 0L75 715L329 715Q499 715 598.50 620.50Q698 526 698 359Q698 191 598.50 95.50Q499 0 329 0L75 0M250 150L322 150Q414 150 465.50 204Q517 258 517 359Q517 459 465 512Q413 565 322 565L250 565L250 150M259 761L160 911L295 911L342 829L344 829L391 911L526 911L427 761L259 761Z"  horiz-adv-x="737" vert-adv-y="1000"  />

      
      <glyph glyph-name="uni010F" unicode="&#x010F;" d="M94.50 62.50Q94.50 62.50 62.75 99.75Q31 137 31 258Q31 379 96.50 453Q162 527 266 527Q360 527 401 486L403 486Q402 496 402 509L402 715L575 715L575 0L413 0L413 34L414 63L412 63Q363-12 263-12Q158-12 94.50 62.50M234 348Q234 348 219.50 331.50Q205 315 205 258Q205 201 233 166Q261 131 306 131Q349 131 378 163Q407 195 407 258Q407 308 380.50 344.50Q354 381 306 381Q263 381 234 348M621 715L757 715Q764 686 764 657Q764 610 736 554L613 554Q633 612 633 647Q633 680 621 715Z"  horiz-adv-x="653" vert-adv-y="1000"  />

      
      <glyph glyph-name="uni0110" unicode="&#x0110;" d="M80 0L80 284L23 284L23 424L80 424L80 715L334 715Q504 715 603.50 620.50Q703 526 703 359Q703 191 603.50 95.50Q504 0 334 0L80 0M255 150L327 150Q419 150 470.50 204Q522 258 522 359Q522 459 470 512Q418 565 327 565L255 565L255 424L359 424L359 284L255 284L255 150Z"  horiz-adv-x="742" vert-adv-y="1000"  />

      
      <glyph glyph-name="uni0111" unicode="&#x0111;" d="M94.50 62.50Q94.50 62.50 62.75 99.75Q31 137 31 258Q31 379 96.50 453Q162 527 266 527Q361 527 401 486L403 486Q402 496 402 509L402 554L276 554L276 649L402 649L402 715L575 715L575 649L641 649L641 554L575 554L575 0L413 0L413 34L414 63L412 63Q359-12 263-12Q158-12 94.50 62.50M234 348Q234 348 219.50 331.50Q205 315 205 258Q205 201 233 166Q261 131 306 131Q349 131 378 163Q407 195 407 258Q407 308 380.50 344.50Q354 381 306 381Q263 381 234 348Z"  horiz-adv-x="633" vert-adv-y="1000"  />

      
      <glyph glyph-name="uni0112" unicode="&#x0112;" d="M75 0L75 715L523 715L523 565L250 565L250 435L468 435L468 285L250 285L250 150L537 150L537 0L75 0M170 782L170 894L445 894L445 782L170 782Z"  horiz-adv-x="574" vert-adv-y="1000"  />

      
      <glyph glyph-name="uni0113" unicode="&#x0113;" d="M29 258Q29 374 102 450.50Q175 527 297 527Q408 527 471.50 457.50Q535 388 535 278Q535 260 531 224L206 224Q215 179 248.50 155.50Q282 132 326 132Q390 132 468 184L532 63Q491 28 431.50 8Q372-12 312-12Q181-12 105 68Q29 148 29 258M210 323L364 323Q364 356 344.50 378Q325 400 293 400Q227 400 210 323M156 586L156 698L431 698L431 586L156 586Z"  horiz-adv-x="567" vert-adv-y="1000"  />

      
      <glyph glyph-name="uni0114" unicode="&#x0114;" d="M75 0L75 715L523 715L523 565L250 565L250 435L468 435L468 285L250 285L250 150L537 150L537 0L75 0M430.50 795Q430.50 795 405.25 775.50Q380 756 307 756Q234 756 183.50 795Q133 834 133 901L133 911L250 911L250 900Q250 872 267 857Q284 842 307 842Q330 842 347 857Q364 872 364 900L364 911L481 911L481 901Q481 834 430.50 795Z"  horiz-adv-x="574" vert-adv-y="1000"  />

      
      <glyph glyph-name="uni0115" unicode="&#x0115;" d="M29 258Q29 374 102 450.50Q175 527 297 527Q408 527 471.50 457.50Q535 388 535 278Q535 260 531 224L206 224Q215 179 248.50 155.50Q282 132 326 132Q390 132 468 184L532 63Q491 28 431.50 8Q372-12 312-12Q181-12 105 68Q29 148 29 258M210 323L364 323Q364 356 344.50 378Q325 400 293 400Q227 400 210 323M416.50 599Q416.50 599 391.25 579.50Q366 560 293 560Q220 560 169.50 599Q119 638 119 705L119 715L236 715L236 704Q236 676 253 661Q270 646 293 646Q316 646 333 661Q350 676 350 704L350 715L467 715L467 705Q467 638 416.50 599Z"  horiz-adv-x="567" vert-adv-y="1000"  />

      
      <glyph glyph-name="uni0116" unicode="&#x0116;" d="M75 0L75 715L523 715L523 565L250 565L250 435L468 435L468 285L250 285L250 150L537 150L537 0L75 0M236 779L236 911L379 911L379 779L236 779Z"  horiz-adv-x="574" vert-adv-y="1000"  />

      
      <glyph glyph-name="uni0117" unicode="&#x0117;" d="M29 258Q29 374 102 450.50Q175 527 297 527Q408 527 471.50 457.50Q535 388 535 278Q535 260 531 224L206 224Q215 179 248.50 155.50Q282 132 326 132Q390 132 468 184L532 63Q491 28 431.50 8Q372-12 312-12Q181-12 105 68Q29 148 29 258M210 323L364 323Q364 356 344.50 378Q325 400 293 400Q227 400 210 323M222 583L222 715L365 715L365 583L222 583Z"  horiz-adv-x="567" vert-adv-y="1000"  />

      
      <glyph glyph-name="uni0118" unicode="&#x0118;" d="M75 0L75 715L523 715L523 565L250 565L250 435L468 435L468 285L250 285L250 150L537 150L537 0Q494-40 494-61Q494-71 503.50-77Q513-83 522-84L532-86L490-210Q485-209 476-208Q467-207 444-200Q421-193 403.50-183Q386-173 371.50-154Q357-135 357-111Q357-54 426 0L75 0Z"  horiz-adv-x="574" vert-adv-y="1000"  />

      
      <glyph glyph-name="uni0119" unicode="&#x0119;" d="M29 258Q29 374 102 450.50Q175 527 297 527Q408 527 471.50 457.50Q535 388 535 278L531 224L206 224Q215 179 248.50 155.50Q282 132 326 132Q394 132 468 184L531 64Q523 56 492 32.50Q461 9 442.50-13.50Q424-36 424-61Q424-71 433.50-77Q443-83 452-84L462-86L420-210Q415-209 406-208Q397-207 374-200Q351-193 333.50-183Q316-173 301.50-154Q287-135 287-111Q287-57 353-8Q327-12 312-12Q181-12 105 68Q29 148 29 258M210 323L364 323Q364 354 345 377Q326 400 293 400Q228 400 210 323Z"  horiz-adv-x="567" vert-adv-y="1000"  />

      
      <glyph glyph-name="uni011A" unicode="&#x011A;" d="M75 0L75 715L523 715L523 565L250 565L250 435L468 435L468 285L250 285L250 150L537 150L537 0L75 0M223 761L124 911L259 911L306 829L308 829L355 911L490 911L391 761L223 761Z"  horiz-adv-x="574" vert-adv-y="1000"  />

      
      <glyph glyph-name="uni011B" unicode="&#x011B;" d="M29 258Q29 374 102 450.50Q175 527 297 527Q408 527 471.50 457.50Q535 388 535 278Q535 260 531 224L206 224Q215 179 248.50 155.50Q282 132 326 132Q390 132 468 184L532 63Q491 28 431.50 8Q372-12 312-12Q181-12 105 68Q29 148 29 258M210 323L364 323Q364 356 344.50 378Q325 400 293 400Q227 400 210 323M209 565L110 715L245 715L292 633L294 633L341 715L476 715L377 565L209 565Z"  horiz-adv-x="567" vert-adv-y="1000"  />

      
      <glyph glyph-name="uni011C" unicode="&#x011C;" d="M37 359Q37 516 143.50 621.50Q250 727 412 727Q579 727 687 632L603 501Q572 529 523 548Q474 567 429 567Q323 567 270.50 509.50Q218 452 218 365Q218 266 277.50 207Q337 148 423 148Q501 148 568 200L568 255L467 255L467 404L723 404L723 0L577 0L577 20L578 50L576 50Q544 22 492.50 5Q441-12 388-12Q244-12 140.50 89Q37 190 37 359M219 761L318 911L486 911L585 761L450 761L403 843L401 843L354 761L219 761Z"  horiz-adv-x="773" vert-adv-y="1000"  />

      
      <glyph glyph-name="uni011D" unicode="&#x011D;" d="M130-33Q198-66 275-66Q394-66 394 33L394 50L395 69L393 69Q348 15 264 15Q154 15 93 91Q32 167 32 274Q32 380 92 453.50Q152 527 263 527Q353 527 403 477L406 477Q405 483 405 489L405 515L567 515L567 47Q567-21 542-72Q517-123 474-152.50Q431-182 381.50-196Q332-210 276-210Q169-210 81-164L130-33M206 280Q206 228 231 193.50Q256 159 305 159Q345 159 371.50 184.50Q398 210 398 272Q398 383 298 383Q254 383 230 354.50Q206 326 206 280M121 565L220 715L388 715L487 565L352 565L305 647L303 647L256 565L121 565Z"  horiz-adv-x="625" vert-adv-y="1000"  />

      
      <glyph glyph-name="uni011E" unicode="&#x011E;" d="M37 359Q37 516 143.50 621.50Q250 727 412 727Q579 727 687 632L603 501Q572 529 523 548Q474 567 429 567Q323 567 270.50 509.50Q218 452 218 365Q218 266 277.50 207Q337 148 423 148Q501 148 568 200L568 255L467 255L467 404L723 404L723 0L577 0L577 20L578 50L576 50Q544 22 492.50 5Q441-12 388-12Q244-12 140.50 89Q37 190 37 359M525.50 795Q525.50 795 500.25 775.50Q475 756 402 756Q329 756 278.50 795Q228 834 228 901L228 911L345 911L345 900Q345 872 362 857Q379 842 402 842Q425 842 442 857Q459 872 459 900L459 911L576 911L576 901Q576 834 525.50 795Z"  horiz-adv-x="773" vert-adv-y="1000"  />

      
      <glyph glyph-name="uni011F" unicode="&#x011F;" d="M130-33Q198-66 275-66Q394-66 394 33L394 50L395 69L393 69Q348 15 264 15Q154 15 93 91Q32 167 32 274Q32 380 92 453.50Q152 527 263 527Q353 527 403 477L406 477Q405 483 405 489L405 515L567 515L567 47Q567-21 542-72Q517-123 474-152.50Q431-182 381.50-196Q332-210 276-210Q169-210 81-164L130-33M206 280Q206 228 231 193.50Q256 159 305 159Q345 159 371.50 184.50Q398 210 398 272Q398 383 298 383Q254 383 230 354.50Q206 326 206 280M427.50 599Q427.50 599 402.25 579.50Q377 560 304 560Q231 560 180.50 599Q130 638 130 705L130 715L247 715L247 704Q247 676 264 661Q281 646 304 646Q327 646 344 661Q361 676 361 704L361 715L478 715L478 705Q478 638 427.50 599Z"  horiz-adv-x="625" vert-adv-y="1000"  />

      
      <glyph glyph-name="uni0120" unicode="&#x0120;" d="M37 359Q37 516 143.50 621.50Q250 727 412 727Q579 727 687 632L603 501Q572 529 523 548Q474 567 429 567Q323 567 270.50 509.50Q218 452 218 365Q218 266 277.50 207Q337 148 423 148Q501 148 568 200L568 255L467 255L467 404L723 404L723 0L577 0L577 20L578 50L576 50Q544 22 492.50 5Q441-12 388-12Q244-12 140.50 89Q37 190 37 359M331 779L331 911L474 911L474 779L331 779Z"  horiz-adv-x="773" vert-adv-y="1000"  />

      
      <glyph glyph-name="uni0121" unicode="&#x0121;" d="M130-33Q198-66 275-66Q394-66 394 33L394 50L395 69L393 69Q348 15 264 15Q154 15 93 91Q32 167 32 274Q32 380 92 453.50Q152 527 263 527Q353 527 403 477L406 477Q405 483 405 489L405 515L567 515L567 47Q567-21 542-72Q517-123 474-152.50Q431-182 381.50-196Q332-210 276-210Q169-210 81-164L130-33M206 280Q206 228 231 193.50Q256 159 305 159Q345 159 371.50 184.50Q398 210 398 272Q398 383 298 383Q254 383 230 354.50Q206 326 206 280M233 583L233 715L376 715L376 583L233 583Z"  horiz-adv-x="625" vert-adv-y="1000"  />

      
      <glyph glyph-name="uni0122" unicode="&#x0122;" d="M37 359Q37 516 143.50 621.50Q250 727 412 727Q579 727 687 632L603 501Q572 529 523 548Q474 567 429 567Q323 567 270.50 509.50Q218 452 218 365Q218 266 277.50 207Q337 148 423 148Q501 148 568 200L568 255L467 255L467 404L723 404L723 0L577 0L577 20L578 50L576 50Q544 22 492.50 5Q441-12 388-12Q244-12 140.50 89Q37 190 37 359M317-49L453-49Q460-78 460-107Q460-154 432-210L309-210Q329-152 329-117Q329-84 317-49Z"  horiz-adv-x="773" vert-adv-y="1000"  />

      
      <glyph glyph-name="uni0123" unicode="&#x0123;" d="M130-33Q198-66 275-66Q394-66 394 33L394 50L395 69L393 69Q348 15 264 15Q154 15 93 91Q32 167 32 274Q32 380 92 453.50Q152 527 263 527Q353 527 403 477L406 477Q405 483 405 489L405 515L567 515L567 47Q567-21 542-72Q517-123 474-152.50Q431-182 381.50-196Q332-210 276-210Q169-210 81-164L130-33M206 280Q206 228 231 193.50Q256 159 305 159Q345 159 371.50 184.50Q398 210 398 272Q398 383 298 383Q254 383 230 354.50Q206 326 206 280M375 560L240 560Q233 588 233 616Q233 661 260 715L383 715Q363 658 363 626Q363 593 375 560Z"  horiz-adv-x="625" vert-adv-y="1000"  />

      
      <glyph glyph-name="uni0124" unicode="&#x0124;" d="M75 0L75 715L250 715L250 429L510 429L510 715L685 715L685 0L510 0L510 280L250 280L250 0L75 0M197 761L296 911L464 911L563 761L428 761L381 843L379 843L332 761L197 761Z"  horiz-adv-x="760" vert-adv-y="1000"  />

      
      <glyph glyph-name="uni0125" unicode="&#x0125;" d="M58 0L58 715L231 715L231 489L229 445L231 445Q253 483 295 505Q337 527 388 527Q573 527 573 334L573 0L400 0L400 302Q400 370 343 370Q289 370 260 332Q231 294 231 232L231 0L58 0M-38 761L61 911L229 911L328 761L193 761L146 843L144 843L97 761L-38 761Z"  horiz-adv-x="626" vert-adv-y="1000"  />

      
      <glyph glyph-name="uni0126" unicode="&#x0126;" d="M82 0L82 517L16 517L16 624L82 624L82 715L261 715L261 624L503 624L503 715L682 715L682 624L747 624L747 517L682 517L682 0L503 0L503 280L261 280L261 0L82 0M261 429L503 429L503 517L261 517L261 429Z"  horiz-adv-x="764" vert-adv-y="1000"  />

      
      <glyph glyph-name="uni0127" unicode="&#x0127;" d="M58 0L58 554L0 554L0 649L58 649L58 715L231 715L231 649L365 649L365 554L231 554L231 489L229 445L231 445Q253 483 295 505Q337 527 388 527Q573 527 573 334L573 0L400 0L400 302Q400 370 343 370Q289 370 260 331Q231 292 231 233L231 0L58 0Z"  horiz-adv-x="626" vert-adv-y="1000"  />

      
      <glyph glyph-name="uni0128" unicode="&#x0128;" d="M75 0L75 715L250 715L250 0L75 0M-38 761Q-38 914 90 914Q119 914 142 899Q165 884 183 869Q201 854 216 854Q253 854 253 911L365 911Q365 758 237 758Q208 758 185 773Q162 788 144 803Q126 818 111 818Q74 818 74 761L-38 761Z"  horiz-adv-x="325" vert-adv-y="1000"  />

      
      <glyph glyph-name="uni0129" unicode="&#x0129;" d="M58 0L58 515L231 515L231 0L58 0M-57 565Q-57 718 71 718Q100 718 123 703Q146 688 164 673Q182 658 197 658Q234 658 234 715L346 715Q346 562 218 562Q189 562 166 577Q143 592 125 607Q107 622 92 622Q55 622 55 565L-57 565Z"  horiz-adv-x="289" vert-adv-y="1000"  />

      
      <glyph glyph-name="uni012A" unicode="&#x012A;" d="M75 0L75 715L250 715L250 0L75 0M26 782L26 894L301 894L301 782L26 782Z"  horiz-adv-x="325" vert-adv-y="1000"  />

      
      <glyph glyph-name="uni012B" unicode="&#x012B;" d="M58 0L58 515L231 515L231 0L58 0M7 586L7 698L282 698L282 586L7 586Z"  horiz-adv-x="289" vert-adv-y="1000"  />

      
      <glyph glyph-name="uni012C" unicode="&#x012C;" d="M75 0L75 715L250 715L250 0L75 0M286.50 795Q286.50 795 261.25 775.50Q236 756 163 756Q90 756 39.50 795Q-11 834-11 901L-11 911L106 911L106 900Q106 872 123 857Q140 842 163 842Q186 842 203 857Q220 872 220 900L220 911L337 911L337 901Q337 834 286.50 795Z"  horiz-adv-x="325" vert-adv-y="1000"  />

      
      <glyph glyph-name="uni012D" unicode="&#x012D;" d="M58 0L58 515L231 515L231 0L58 0M267.50 599Q267.50 599 242.25 579.50Q217 560 144 560Q71 560 20.50 599Q-30 638-30 705L-30 715L87 715L87 704Q87 676 104 661Q121 646 144 646Q167 646 184 661Q201 676 201 704L201 715L318 715L318 705Q318 638 267.50 599Z"  horiz-adv-x="289" vert-adv-y="1000"  />

      
      <glyph glyph-name="uni012E" unicode="&#x012E;" d="M75 0L75 715L250 715L250 0Q207-40 207-61Q207-71 216.50-77Q226-83 236-84L245-86L203-210Q198-209 189-208Q180-207 157-200Q134-193 116.50-183Q99-173 84.50-154Q70-135 70-111Q70-55 134 0L75 0Z"  horiz-adv-x="325" vert-adv-y="1000"  />

      
      <glyph glyph-name="uni012F" unicode="&#x012F;" d="M58 0L58 515L231 515L231 0Q188-40 188-61Q188-71 197.50-77Q207-83 216-84L226-86L184-210Q179-210 170-208.50Q161-207 138-200Q115-193 97.50-183Q80-173 65.50-154Q51-135 51-110Q51-55 115 0L58 0M60 580L60 715L229 715L229 580L60 580Z"  horiz-adv-x="289" vert-adv-y="1000"  />

      
      <glyph glyph-name="uni0130" unicode="&#x0130;" d="M75 0L75 715L250 715L250 0L75 0M92 779L92 911L235 911L235 779L92 779Z"  horiz-adv-x="325" vert-adv-y="1000"  />

      
      <glyph glyph-name="uni0131" unicode="&#x0131;" d="M58 0L58 515L231 515L231 0L58 0Z"  horiz-adv-x="289" vert-adv-y="1000"  />

      
      <glyph glyph-name="uni0132" unicode="&#x0132;" d="M318-4L318 154Q360 154 397 181.50Q434 209 434 270L434 715L613 715L613 268Q613 203 594.50 153Q576 103 547.50 74Q519 45 478.50 26.50Q438 8 400 2Q362-4 318-4M75 0L75 715L250 715L250 0L75 0Z"  horiz-adv-x="681" vert-adv-y="1000"  />

      
      <glyph glyph-name="uni0133" unicode="&#x0133;" d="M60 580L60 715L229 715L229 580L60 580M58 0L58 515L231 515L231 0L58 0M349 580L349 715L518 715L518 580L349 580M347 4L347 515L520 515L520-13Q520-62 502-99.50Q484-137 458.50-157Q433-177 397.50-189Q362-201 334.50-204.50Q307-208 278-208Q254-208 232-205L232-61Q240-62 254-62Q347-62 347 4Z"  horiz-adv-x="578" vert-adv-y="1000"  />

      
      <glyph glyph-name="uni0134" unicode="&#x0134;" d="M18 220L18 272L193 272L193 234Q193 148 258 148Q288 148 305 167Q322 186 322 224L322 565L130 565L130 715L497 715L497 220Q497 109 426 48.50Q355-12 258-12Q160-12 89 49Q18 110 18 220M126 761L225 911L393 911L492 761L357 761L310 843L308 843L261 761L126 761Z"  horiz-adv-x="566" vert-adv-y="1000"  />

      
      <glyph glyph-name="uni0135" unicode="&#x0135;" d="M-30 565L69 715L221 715L320 565L193 565L146 647L144 647L97 565L-30 565M58 4L58 515L231 515L231-13Q231-62 213-99.50Q195-137 169.50-157Q144-177 108.50-189Q73-201 45.50-204.50Q18-208-11-208Q-34-208-57-205L-57-61Q-51-62-35-62Q58-62 58 4Z"  horiz-adv-x="289" vert-adv-y="1000"  />

      
      <glyph glyph-name="uni0136" unicode="&#x0136;" d="M75 0L75 715L250 715L250 439L322 439L470 715L658 715L465 373L465 371L669 0L473 0L322 290L250 290L250 0L75 0M271-49L407-49Q414-78 414-107Q414-154 386-210L263-210Q283-152 283-117Q283-84 271-49Z"  horiz-adv-x="675" vert-adv-y="1000"  />

      
      <glyph glyph-name="uni0137" unicode="&#x0137;" d="M58 0L58 715L231 715L231 345L280 345L382 515L570 515L419 281L419 279L591 0L394 0L285 200L231 200L231 0L58 0M233-49L369-49Q376-78 376-107Q376-154 348-210L225-210Q245-152 245-117Q245-84 233-49Z"  horiz-adv-x="591" vert-adv-y="1000"  />

      
      <glyph glyph-name="uni0138" unicode="&#x0138;" d="M58 0L58 515L231 515L231 335L280 335L385 515L573 515L419 271L419 269L585 0L385 0L285 190L231 190L231 0L58 0Z"  horiz-adv-x="589" vert-adv-y="1000"  />

      
      <glyph glyph-name="uni0139" unicode="&#x0139;" d="M75 0L75 715L250 715L250 150L542 150L542 0L75 0M91 761L172 911L343 911L225 761L91 761Z"  horiz-adv-x="552" vert-adv-y="1000"  />

      
      <glyph glyph-name="uni013A" unicode="&#x013A;" d="M57 190L57 715L230 715L230 213Q230 175 239.50 161Q249 147 278 147Q291 147 299 148L299-2Q263-5 247-5Q207-5 177.50 1.50Q148 8 118.50 27Q89 46 73 87Q57 128 57 190M72 761L153 911L324 911L206 761L72 761Z"  horiz-adv-x="322" vert-adv-y="1000"  />

      
      <glyph glyph-name="uni013B" unicode="&#x013B;" d="M75 0L75 715L250 715L250 150L542 150L542 0L75 0M242-49L378-49Q385-78 385-107Q385-154 357-210L234-210Q254-152 254-117Q254-84 242-49Z"  horiz-adv-x="552" vert-adv-y="1000"  />

      
      <glyph glyph-name="uni013C" unicode="&#x013C;" d="M57 190L57 715L230 715L230 213Q230 175 239.50 161Q249 147 278 147Q291 147 299 148L299-2Q263-5 247-5Q207-5 177.50 1.50Q148 8 118.50 27Q89 46 73 87Q57 128 57 190M113-49L249-49Q256-78 256-107Q256-154 228-210L105-210Q125-152 125-117Q125-84 113-49Z"  horiz-adv-x="322" vert-adv-y="1000"  />

      
      <glyph glyph-name="uni013D" unicode="&#x013D;" d="M75 0L75 715L250 715L250 150L542 150L542 0L75 0M320 715L456 715Q463 686 463 657Q463 610 435 554L312 554Q332 612 332 647Q332 680 320 715Z"  horiz-adv-x="553" vert-adv-y="1000"  />

      
      <glyph glyph-name="uni013E" unicode="&#x013E;" d="M57 190L57 715L230 715L230 213Q230 175 239.50 161Q249 147 278 147Q291 147 299 148L299-2Q263-5 247-5Q207-5 177.50 1.50Q148 8 118.50 27Q89 46 73 87Q57 128 57 190M277 715L413 715Q420 686 420 657Q420 610 392 554L269 554Q289 612 289 647Q289 680 277 715Z"  horiz-adv-x="342" vert-adv-y="1000"  />

      
      <glyph glyph-name="uni013F" unicode="&#x013F;" d="M75 0L75 715L250 715L250 150L542 150L542 0L75 0M343 315L343 479L501 479L501 315L343 315Z"  horiz-adv-x="554" vert-adv-y="1000"  />

      
      <glyph glyph-name="uni0140" unicode="&#x0140;" d="M57 190L57 715L230 715L230 213Q230 175 239.50 161Q249 147 278 147Q291 147 299 148L299-2Q263-5 247-5Q207-5 177.50 1.50Q148 8 118.50 27Q89 46 73 87Q57 128 57 190M312 315L312 479L470 479L470 315L312 315Z"  horiz-adv-x="495" vert-adv-y="1000"  />

      
      <glyph glyph-name="uni0141" unicode="&#x0141;" d="M79 0L79 205L27 175L27 341L79 371L79 715L254 715L254 471L355 529L355 363L254 305L254 150L546 150L546 0L79 0Z"  horiz-adv-x="556" vert-adv-y="1000"  />

      
      <glyph glyph-name="uni0142" unicode="&#x0142;" d="M18 195L18 361L68 390L68 715L241 715L241 489L310 529L310 363L241 323L241 213Q241 175 250.50 161Q260 147 289 147L310 148L310-2Q286-5 258-5Q218-5 188.50 1.50Q159 8 129.50 27Q100 46 84 87Q68 128 68 190L68 224L18 195Z"  horiz-adv-x="334" vert-adv-y="1000"  />

      
      <glyph glyph-name="uni0143" unicode="&#x0143;" d="M75 0L75 715L252 715L450 381Q462 360 477 329.50Q492 299 501 279L510 259L512 259Q504 336 504 381L504 715L679 715L679 0L503 0L304 333Q292 354 277 384.50Q262 415 253 435L244 455L242 455Q250 378 250 333L250 0L75 0M305 761L386 911L557 911L439 761L305 761Z"  horiz-adv-x="754" vert-adv-y="1000"  />

      
      <glyph glyph-name="uni0144" unicode="&#x0144;" d="M58 0L58 515L224 515L224 470L222 438L224 438Q277 527 388 527Q573 527 573 334L573 0L400 0L400 302Q400 370 343 370Q288 370 259.50 331Q231 292 231 233L231 0L58 0M247 565L328 715L499 715L381 565L247 565Z"  horiz-adv-x="626" vert-adv-y="1000"  />

      
      <glyph glyph-name="uni0145" unicode="&#x0145;" d="M75 0L75 715L252 715L450 381Q462 360 477 329.50Q492 299 501 279L510 259L512 259Q504 336 504 381L504 715L679 715L679 0L503 0L304 333Q292 354 277 384.50Q262 415 253 435L244 455L242 455Q250 378 250 333L250 0L75 0M306-49L442-49Q449-78 449-107Q449-154 421-210L298-210Q318-152 318-117Q318-84 306-49Z"  horiz-adv-x="754" vert-adv-y="1000"  />

      
      <glyph glyph-name="uni0146" unicode="&#x0146;" d="M58 0L58 515L224 515L224 470L222 438L224 438Q277 527 388 527Q573 527 573 334L573 0L400 0L400 302Q400 370 343 370Q288 370 259.50 331Q231 292 231 233L231 0L58 0M241-49L377-49Q384-78 384-107Q384-154 356-210L233-210Q253-152 253-117Q253-84 241-49Z"  horiz-adv-x="626" vert-adv-y="1000"  />

      
      <glyph glyph-name="uni0147" unicode="&#x0147;" d="M75 0L75 715L252 715L450 381Q462 360 477 329.50Q492 299 501 279L510 259L512 259Q504 336 504 381L504 715L679 715L679 0L503 0L304 333Q292 354 277 384.50Q262 415 253 435L244 455L242 455Q250 378 250 333L250 0L75 0M293 761L194 911L329 911L376 829L378 829L425 911L560 911L461 761L293 761Z"  horiz-adv-x="754" vert-adv-y="1000"  />

      
      <glyph glyph-name="uni0148" unicode="&#x0148;" d="M58 0L58 515L224 515L224 470L222 438L224 438Q277 527 388 527Q573 527 573 334L573 0L400 0L400 302Q400 370 343 370Q288 370 259.50 331Q231 292 231 233L231 0L58 0M235 565L136 715L271 715L318 633L320 633L367 715L502 715L403 565L235 565Z"  horiz-adv-x="626" vert-adv-y="1000"  />

      
      <glyph glyph-name="uni0149" unicode="&#x0149;" d="M58 0L58 515L224 515L224 470L222 438L224 438Q277 527 388 527Q573 527 573 334L573 0L400 0L400 302Q400 370 343 370Q288 370 259.50 331Q231 292 231 233L231 0L58 0M-36 715L100 715Q107 686 107 657Q107 610 79 554L-44 554Q-24 612-24 647Q-24 680-36 715Z"  horiz-adv-x="626" vert-adv-y="1000"  />

      
      <glyph glyph-name="uni014A" unicode="&#x014A;" d="M75 0L75 715L252 715L450 381Q462 360 477 329.50Q492 299 501 279L510 259L512 259Q504 336 504 381L504 715L679 715L679 67Q679 2 660.50-48Q642-98 613.50-127Q585-156 544.50-174.50Q504-193 466-199Q428-205 384-205L384-47Q411-47 449-31Q487-15 497 10L304 333Q292 354 277 384.50Q262 415 253 435L244 455L242 455Q250 378 250 333L250 0L75 0Z"  horiz-adv-x="753" vert-adv-y="1000"  />

      
      <glyph glyph-name="uni014B" unicode="&#x014B;" d="M58 0L58 515L224 515L224 450L223 438L225 438Q278 527 388 527Q573 527 573 334L573-13Q573-62 555-99.50Q537-137 511.50-157Q486-177 450.50-189Q415-201 387.50-204.50Q360-208 331-208L285-205L285-61Q294-62 307-62Q400-62 400 4L400 302Q400 370 343 370Q288 370 259.50 331Q231 292 231 233L231 0L58 0Z"  horiz-adv-x="626" vert-adv-y="1000"  />

      
      <glyph glyph-name="uni014C" unicode="&#x014C;" d="M36 362Q36 518 141 622.50Q246 727 410 727Q574 727 679 622.50Q784 518 784 362Q784 202 679 95Q574-12 410-12Q246-12 141 95Q36 202 36 362M217 362Q217 270 271.50 209Q326 148 410 148Q494 148 548.50 209Q603 270 603 362Q603 450 548.50 508.50Q494 567 410 567Q326 567 271.50 508.50Q217 450 217 362M273 782L273 894L548 894L548 782L273 782Z"  horiz-adv-x="820" vert-adv-y="1000"  />

      
      <glyph glyph-name="uni014D" unicode="&#x014D;" d="M113 62.50Q113 62.50 71 99.75Q29 137 29 256Q29 375 113 451Q197 527 320 527Q444 527 528.50 451.50Q613 376 613 256Q613 137 529 62.50Q445-12 321-12Q197-12 113 62.50M204 256Q204 200 238 166Q272 132 321 132Q370 132 404 166Q438 200 438 256Q438 313 404 348Q370 383 321 383Q272 383 238 348Q204 313 204 256M184 586L184 698L459 698L459 586L184 586Z"  horiz-adv-x="642" vert-adv-y="1000"  />

      
      <glyph glyph-name="uni014E" unicode="&#x014E;" d="M36 362Q36 518 141 622.50Q246 727 410 727Q574 727 679 622.50Q784 518 784 362Q784 202 679 95Q574-12 410-12Q246-12 141 95Q36 202 36 362M217 362Q217 270 271.50 209Q326 148 410 148Q494 148 548.50 209Q603 270 603 362Q603 450 548.50 508.50Q494 567 410 567Q326 567 271.50 508.50Q217 450 217 362M533.50 795Q533.50 795 508.25 775.50Q483 756 410 756Q337 756 286.50 795Q236 834 236 901L236 911L353 911L353 900Q353 872 370 857Q387 842 410 842Q433 842 450 857Q467 872 467 900L467 911L584 911L584 901Q584 834 533.50 795Z"  horiz-adv-x="820" vert-adv-y="1000"  />

      
      <glyph glyph-name="uni014F" unicode="&#x014F;" d="M113 62.50Q113 62.50 71 99.75Q29 137 29 256Q29 375 113 451Q197 527 320 527Q444 527 528.50 451.50Q613 376 613 256Q613 137 529 62.50Q445-12 321-12Q197-12 113 62.50M204 256Q204 200 238 166Q272 132 321 132Q370 132 404 166Q438 200 438 256Q438 313 404 348Q370 383 321 383Q272 383 238 348Q204 313 204 256M444.50 599Q444.50 599 419.25 579.50Q394 560 321 560Q248 560 197.50 599Q147 638 147 705L147 715L264 715L264 704Q264 676 281 661Q298 646 321 646Q344 646 361 661Q378 676 378 704L378 715L495 715L495 705Q495 638 444.50 599Z"  horiz-adv-x="642" vert-adv-y="1000"  />

      
      <glyph glyph-name="uni0150" unicode="&#x0150;" d="M36 362Q36 518 141 622.50Q246 727 410 727Q574 727 679 622.50Q784 518 784 362Q784 202 679 95Q574-12 410-12Q246-12 141 95Q36 202 36 362M217 362Q217 270 271.50 209Q326 148 410 148Q494 148 548.50 209Q603 270 603 362Q603 450 548.50 508.50Q494 567 410 567Q326 567 271.50 508.50Q217 450 217 362M436 761L517 911L680 911L562 761L436 761M228 761L304 911L443 911L364 761L228 761Z"  horiz-adv-x="820" vert-adv-y="1000"  />

      
      <glyph glyph-name="uni0151" unicode="&#x0151;" d="M113 62.50Q113 62.50 71 99.75Q29 137 29 256Q29 375 113 451Q197 527 320 527Q444 527 528.50 451.50Q613 376 613 256Q613 137 529 62.50Q445-12 321-12Q197-12 113 62.50M204 256Q204 200 238 166Q272 132 321 132Q370 132 404 166Q438 200 438 256Q438 313 404 348Q370 383 321 383Q272 383 238 348Q204 313 204 256M347 565L428 715L591 715L473 565L347 565M139 565L215 715L354 715L275 565L139 565Z"  horiz-adv-x="642" vert-adv-y="1000"  />

      
      <glyph glyph-name="uni0152" unicode="&#x0152;" d="M147.50 99Q147.50 99 91.25 152.50Q35 206 35 359Q35 512 147.50 617.50Q260 723 419 723Q456 723 494 719Q532 715 551 715L939 715L939 565L666 565L666 435L884 435L884 285L666 285L666 150L954 150L954 0L551 0Q532 0 494-4Q456-8 419-8Q260-8 147.50 99M275 511.50Q275 511.50 245.50 480.25Q216 449 216 359Q216 269 275 205Q334 141 419 141Q439 141 457 142.50Q475 144 483 146L491 148L491 567Q463 574 419 574Q334 574 275 511.50Z"  horiz-adv-x="990" vert-adv-y="1000"  />

      
      <glyph glyph-name="uni0153" unicode="&#x0153;" d="M111 62.50Q111 62.50 70 99.75Q29 137 29 256Q29 375 111 451Q193 527 314 527Q382 527 427.50 506.50Q473 486 513 447L515 447Q550 486 593 506.50Q636 527 705 527Q816 527 879.50 457.50Q943 388 943 278L939 224L615 224Q624 181 657.50 156.50Q691 132 734 132Q804 132 876 184L940 63Q898 27 839 7.50Q780-12 720-12Q647-12 601.50 10Q556 32 519 73L517 73Q477 32 430.50 10Q384-12 315-12Q193-12 111 62.50M618 323L769 323Q768 352 750 374.50Q732 397 703 397Q636 397 618 323M203 256Q203 200 237 166Q271 132 320 132Q369 132 403 166Q437 200 437 256Q437 313 403 348Q369 383 320 383Q271 383 237 348Q203 313 203 256Z"  horiz-adv-x="975" vert-adv-y="1000"  />

      
      </font>
</defs>
</svg>
